Tags
Language
Tags

Squid - Bright Green Field (2021) [Official Digital Download 24/96]

Posted By: delpotro
Squid - Bright Green Field (2021) [Official Digital Download 24/96]

Squid - Bright Green Field (2021)
FLAC (tracks) 24-bit/96 kHz | Front Cover | Time - 54:48 minutes | 1,13 GB
Psychedelic Rock, Post-Punk, Krautrock | Label: Warp Records, Official Digital Download

At last the debut album from Squid and it's everything you wished for and more. Bright Green Field is produced by Dan Carey and released via Warp Records. It's an album of towering scope and ambition, it is deeply considered, paced and intricately constructed. With all band members playing such a vital and equal role, this album is very much the product of five heads operating as one. Some bands might be tempted to include previous singles on their debut - and the band already released two more in 2020 via ‘Sludge’ and ‘Broadcaster’ - but instead Bright Green Field is completely new. This sense of limitlessness and perpetual forward motion is one of the the key ingredients that makes Squid so loved by fans and critics alike, from BBC Radio 6 Music who have A-Listed previous singles, ‘Houseplants’, ‘The Cleaner’ and ‘Match Bet’ to publications such as, The Guardian, NME, The Face, The Quietus and countless others.

Bright Green Field features field recordings of ringing church bells, tooting bees, microphones swinging from the ceiling orbiting a room of guitar amps, a distorted choir of 30 voices as well as a horn and string ensemble featuring the likes of, Emma-Jean Thackray and Lewis Evans from Black Country, New Road. Whilst the album title conjures up imagery of pastoral England, in reality, it’s something of a decoy that captures the band’s fondness for paradox and juxtaposition. Within the geography of Bright Green Field lies monolithic concrete buildings and dystopian visions plucked from imagined cities. Squid’s music - be it agitated and discordant or groove-locked and flowing - has often been a reflection of the tumultuous world we live in and this continues that to some extent.

Tracklist:
1. Squid – Resolution Square (00:40)
2. Squid – G.S.K. (03:10)
3. Squid & Martha Skye Murphy – Narrator (08:28)
4. Squid – Boy Racers (07:34)
5. Squid – Paddling (06:17)
6. Squid – Documentary Filmmaker (04:55)
7. Squid – 2010 (04:28)
8. Squid – The Flyover (01:10)
9. Squid – Peel St. (04:52)
10. Squid – Global Groove (05:07)
11. Squid – Pamphlets (08:03)

foobar2000 1.4.1 / Dynamic Range Meter 1.1.1
log date: 2021-05-08 11:57:26

––––––––––––––––––––––––––––––––––––––––
Analyzed: Squid / Bright Green Field
––––––––––––––––––––––––––––––––––––––––

DR Peak RMS Duration Track
––––––––––––––––––––––––––––––––––––––––
DR12 -16.86 dB -32.16 dB 0:40 01-Resolution Square
DR9 0.00 dB -10.47 dB 3:11 02-G.S.K.
DR7 0.00 dB -8.77 dB 8:29 03-Narrator
DR7 0.00 dB -9.47 dB 7:34 04-Boy Racers
DR8 0.00 dB -11.38 dB 6:17 05-Paddling
DR12 -0.50 dB -17.82 dB 4:56 06-Documentary Filmmaker
DR7 0.00 dB -9.72 dB 4:28 07-2010
DR10 -8.10 dB -19.72 dB 1:11 08-The Flyover
DR8 0.00 dB -11.01 dB 4:52 09-Peel St.
DR10 0.00 dB -14.10 dB 5:08 10-Global Groove
DR8 0.00 dB -9.27 dB 8:04 11-Pamphlets
––––––––––––––––––––––––––––––––––––––––

Number of tracks: 11
Official DR value: DR9

Samplerate: 96000 Hz
Channels: 2
Bits per sample: 24
Bitrate: 3039 kbps
Codec: FLAC
================================================================================


Thanks to the Original customer!