Tags
Language
Tags

Stereolab - Electrically Possessed (Switched On, Vol. 4) (2021) [Official Digital Download 24/96]

Posted By: delpotro
Stereolab - Electrically Possessed (Switched On, Vol. 4) (2021) [Official Digital Download 24/96]

Stereolab - Electrically Possessed (Switched On, Vol. 4) (2021)
FLAC (tracks) 24-bit/96 kHz | Front Cover | Time - 104:26 minutes | 2,13 GB
Electronic, Downtempo, Trip-Hop, Art Pop, Female Vocal | Label: Duophonic Records, Official Digital Download

The fourth in the Switched On series that compiles non-album tracks and sought after deep cuts by the groop. Following on from the first volume released in 1992, 1995's Refried Ectoplasm, and 1998's Aluminum Tunes, the long-awaited fourth installment spans 1999 - 2008 in the Stereolab story and collates 3 LPs worth of material, all remastered from the original tapes and overseen by the band. It features all the tracks from out-of-print and sought after mini-album The First Of The Microbe Hunters, one-off and impossible to find tour 7"s, compilation tracks, art installation work and a couple of unreleased outtakes from the Mars Audiac Quintet and Dots and Loops recording sessions.

Tracklist:
Disc 1 (49:12)
1. Outer Bongolia (09:29)
2. Intervals (04:38)
3. Barock-Plastic (03:17)
4. Nomus Et Phusis (04:23)
5. I Feel the Air {Of Another Planet} (08:12)
6. Household Names (03:43)
7. Retrograde Mirror Form (06:45)
8. Solar Throw-Away [Original version] (03:06)
9. Pandora's Box of Worms (02:16)
10. L'exotisme Interieur (03:23)

Disc 2 (55:00)
1. The Super It (03:51)
2. Jump Drive Shut-Out (02:43)
3. Explosante Fixe (04:25)
4. Fried Monkey Eggs [Instrumental version] (02:08)
5. Monkey Jelly (01:54)
6. B.U.A (04:51)
7. Free Witch and No Bra Queen (04:44)
8. Heavy Denim Loop, Pt. 2 (02:54)
9. Variation One (04:01)
10. Monkey Jelly [Beats] (01:53)
11. Dimension M2 (04:03)
12. Solar Throw-Away (03:59)
13. Calimero (06:25)
14. Fried Monkey Eggs [Vocal] (02:08)
15. Speck Voice (05:01)

foobar2000 1.4.1 / Dynamic Range Meter 1.1.1
log date: 2021-02-26 12:50:46

––––––––––––––––––––––––––––––––––––––––
Analyzed: Stereolab / Electrically Possessed [Switched On Volume 4]
––––––––––––––––––––––––––––––––––––––––

DR Peak RMS Duration Track
––––––––––––––––––––––––––––––––––––––––
DR7 -0.17 dB -7.66 dB 9:30 01-Outer Bongolia
DR8 -0.20 dB -10.16 dB 4:39 02-Intervals
DR7 -0.18 dB -8.92 dB 3:17 03-Barock-Plastic
DR8 -0.18 dB -9.70 dB 4:24 04-Nomus Et Phusis
DR7 -0.19 dB -9.24 dB 8:12 05-I Feel The Air {Of Another Planet}
DR7 -0.20 dB -8.30 dB 3:43 06-Household Names
DR8 -0.16 dB -9.43 dB 6:46 07-Retrograde Mirror Form
DR7 -0.17 dB -8.85 dB 3:07 08-Solar Throw-Away [Original version]
DR10 -0.20 dB -13.61 dB 2:17 09-Pandora's Box Of Worms
DR7 -0.19 dB -8.41 dB 3:23 10-L'exotisme Interieur
DR7 -0.20 dB -8.11 dB 3:51 01-The Super It
DR6 -0.20 dB -8.15 dB 2:43 02-Jump Drive Shut-Out
DR6 -0.19 dB -7.50 dB 4:26 03-Explosante Fixe
DR6 -0.20 dB -7.11 dB 2:08 04-Fried Monkey Eggs [Instrumental version]
DR8 -0.19 dB -8.73 dB 1:54 05-Monkey Jelly
DR7 -0.17 dB -8.49 dB 4:51 06-B.U.A
DR6 -0.20 dB -8.26 dB 4:45 07-Free Witch and No Bra Queen
DR6 -0.19 dB -8.03 dB 2:55 08-Heavy Denim Loop Pt 2
DR6 -0.17 dB -8.45 dB 4:01 09-Variation One
DR10 -0.20 dB -11.57 dB 1:54 10-Monkey Jelly [Beats]
DR5 -0.15 dB -7.39 dB 4:04 11-Dimension M2
DR8 -0.20 dB -9.75 dB 4:00 12-Solar Throw-Away
DR6 -0.19 dB -7.62 dB 6:26 13-Calimero
DR6 -0.16 dB -7.15 dB 2:08 14-Fried Monkey Eggs [Vocal]
DR6 -0.20 dB -8.35 dB 5:02 15-Speck Voice
––––––––––––––––––––––––––––––––––––––––

Number of tracks: 25
Official DR value: DR7

Samplerate: 96000 Hz
Channels: 2
Bits per sample: 24
Bitrate: 2902 kbps
Codec: FLAC
================================================================================


Thanks to the Original customer!