Tags
Language
Tags

The Gaslamp Killer - Heart Math (2020) [Official Digital Download]

Posted By: delpotro
The Gaslamp Killer - Heart Math (2020) [Official Digital Download]

The Gaslamp Killer - Heart Math (2020)
FLAC (tracks) 24-bit/44,1 kHz | Front Cover | Time - 47:36 minutes | 529 MB
Psychedelic, World, Electronic, Beats, Nu Jazz, Jazz Fusion | Label: Cuss Records, Official Digital Download

After a short hiatus, The Gaslamp Killer has returned with turbulent, moody, and gorgeous symphonies on his third full-length album, Heart Math. An intense and emotional masterpiece, it reaffirms why he remains one of the best DJs and instrumental hip-hop producers of his generation. This is a work conceived and creative with every last ounce of love and pain, all of it made in turmoil and psychic unrest, with music providing the only form of solace or opportunity to find even a fleeting moment of happiness. It is as pure as catharsis gets. Heart music to survive a season in hell.

Tracklist:
1. Forged by Fire (feat. Miguel Atwood-Ferguson) (02:46)
2. One Take Jake (feat. Roberto Schilling) (02:05)
3. The Cat's Meow (feat. Amir Yaghmai) (02:38)
4. Moving On (04:32)
5. God Willing (feat. Miguel Atwood-Ferguson) (04:39)
6. Nullen Void (feat. Amir Yaghmai & MRR) (02:47)
7. Hooked on Classics (feat. The Heliocentrics) (03:32)
8. Markets of Marrakech (feat. Gabe Noel) (01:38)
9. Hjorth (feat. Mophono) (03:33)
10. Blue Butterfly (feat. Kid Moxie) (01:56)
11. To Fathom Hell or to Soar Angelic (02:12)
12. Midnight Music (04:14)
13. Malcolm's Library (feat. Roberto Schilling) (02:18)
14. Blind Dog (feat. Black Flower) (06:49)
15. Heart Math (feat. Amir Yaghmai) (03:07)

foobar2000 1.4.4 / Dynamic Range Meter 1.1.1
log date: 2021-04-04 15:09:33

––––––––––––––––––––––––––––––––––––––––
Analyzed: The Gaslamp Killer / Heart Math
––––––––––––––––––––––––––––––––––––––––

DR Peak RMS Duration Track
––––––––––––––––––––––––––––––––––––––––
DR7 -1.70 dB -10.26 dB 2:47 01-Forged By Fire ft. Miguel Atwood-Ferguson
DR6 -0.96 dB -8.72 dB 2:05 02-One Take Jake ft. Roberto Schilling
DR6 -1.01 dB -8.39 dB 2:39 03-The Cat's Meow ft. Amir Yaghmai
DR8 -0.54 dB -11.20 dB 4:32 04-Moving On
DR6 -1.01 dB -8.75 dB 4:40 05-God Willing ft. Miguel Atwood-Ferguson
DR8 -0.50 dB -10.23 dB 2:47 06-Nullen Void ft. MRR & Amir Yaghmai
DR8 -0.94 dB -9.89 dB 3:32 07-Hooked On Classic's ft. The Heliocentrics
DR7 -0.50 dB -9.27 dB 1:38 08-Markets Of Marrakech ft. Gabe Noel
DR8 -0.50 dB -10.74 dB 3:33 09-Hjorth ft. Mophono
DR7 -0.88 dB -8.85 dB 1:57 10-Blue Butterfly ft. Kid Moxie
DR8 -1.02 dB -12.25 dB 2:12 11-To Fathom Hell or to Soar Angelic ft. Sorne & Rogê
DR7 -0.58 dB -9.99 dB 4:14 12-Midnight Music
DR7 -0.88 dB -8.37 dB 2:18 13-Malcolm's Library ft. Roberto Schilling
DR8 -0.50 dB -9.24 dB 5:34 14-Blind Dog ft. Black Flower
DR8 -1.00 dB -11.90 dB 3:08 15-Heart Math ft. Amir Yaghmai
––––––––––––––––––––––––––––––––––––––––

Number of tracks: 15
Official DR value: DR7

Samplerate: 44100 Hz
Channels: 2
Bits per sample: 24
Bitrate: 1251 kbps
Codec: FLAC
================================================================================


Thanks to the Original customer!