Tags
Language
Tags
April 2024
Su Mo Tu We Th Fr Sa
31 1 2 3 4 5 6
7 8 9 10 11 12 13
14 15 16 17 18 19 20
21 22 23 24 25 26 27
28 29 30 1 2 3 4

Organized Konfusion - s/t (1991) {HollywoodBASIC} **[RE-UP]**

Posted By: TestTickles
Organized Konfusion - s/t (1991) {HollywoodBASIC} **[RE-UP]**

Organized Konfusion - s/t (1991)
EAC Rip | FLAC with CUE and log | scans | 340 mb
MP3 CBR 320kbps | RAR | 138 mb
Genre: hip-hop, rap

Organized Konfusion were a hip-hop duo from New York City consisting of Larry Baskerville and Troy Jamerson, who were better known as Prince Poetry (or Prince Po) and Pharoahe Monch respectively. This was their debut album released in 1991 on Hollwood BASIC and features the hits "Fudge Pudge", "Walk Into The Sun", and "Who Stole My Last Piece Of Chicken?".
Few artists have managed to have such an explosive impact with their debut album as Organized Konfusion. Showering listeners in a hailstorm of rapid rhymes, Prince Poetry and Pharoahe Monch showed that verbal styles could be both fast and deep. Funked-up party themes like "Fudge Pudge" and metaphoric monsters like "Releasing Hypnotical Gasses" were dense in their lyricism. But O.K. still had a sense of humor–shown on songs like "Who Stole My Last Piece of Chicken?"–as well as a meditative side, as on "Walk Into the Sun." The grooves were soulful, yet frantic at times, jumping from the midtempo cheer of "Audience Pleasers," to the hyperactive attack of "Releasing Hynotical Gasses." In fact, the only real flaw in their debut was an abundance of input–too many lyrics to decipher, too many beats to absorb. Maybe that's why they waited three years for the sequel–to give us time to take it all in.

Organized Konfusion - s/t (1991) {HollywoodBASIC} **[RE-UP]**

01. Fudge Funk
02. Fudge Pudge
03. Walk Into The Sun
04. Releasing Hypnotical Gases
05. Audience Pleasers
06. Jiminez Criqueta
07. Prisoners Of War
08. The Rough Side Of Town
09. Organized Konfusion
10. P.S. 48
11. Roosevelt Franklin
12. Who Stole My Last Piece Of Chicken? (Remix)
13. Open Your Eyes
14. Intro
15. Who Stole My Last Piece Of Chicken?
–-
Prince Poetry
Pharoahe Monch

ADDITIONAL PLAYERS:
Adam Ant Anton-piano (track 2), guitar (track 5, 6)
Chuck-saxophone (track 3)
Vicky-vocals (track 3)
Chris Conway-drums (track 9)
The Merrick Park Baptist Gospel Choir-vocals (track 13)

Produced and mixed by Organized Konfusion
Track 2 co-produced with Snap & The Foolish Mortals
Track 8 co-produced with Kid Nyce & So Unique
Engineered by Adam Ant Anton and Al (Taz) Machera
Track 7 engineered by Greg Gordon
Tracks 8, 9 & 15 engineered by Swift & Greg Gordon
Track 13 engineered by Akili Walker
Track 14 engineered by Swift

Recorded at Power Play, Long Island City, Rawlstons, Brooklyn, and Calliope, NYC
Mixed at Power Play, Long Island City
Mastered at Frankford/Wayne Mastering Labs by Rick Essig

Organized Konfusion - s/t (1991) {HollywoodBASIC} **[RE-UP]**


EAC extraction logfile from 19. September 2007, 10:26 for CD
Organized Konfusion / Organized Konfusion

Used drive : LITE-ON DVDRW SOHW-1633S Adapter: 0 ID: 0
Read mode : Secure with NO C2, accurate stream, disable cache
Read offset correction : 12
Overread into Lead-In and Lead-Out : No

Used output format : Internal WAV Routines
44.100 Hz; 16 Bit; Stereo

Other options :
Fill up missing offset samples with silence : Yes
Delete leading and trailing silent blocks : No
Installed external ASPI interface


Track 1
Filename D:\FLAC\Organized Konfusion - s-t (1991) [FLAC]\01 - Fudge Funk.wav

Pre-gap length 0:00:02.44

Peak level 100.0 %
Track quality 100.0 %
Test CRC B6701DEC
Copy CRC B6701DEC
Copy OK

Track 2
Filename D:\FLAC\Organized Konfusion - s-t (1991) [FLAC]\02 - Fudge Pudge.wav

Pre-gap length 0:00:01.58

Peak level 94.6 %
Track quality 99.9 %
Test CRC 64624521
Copy CRC 64624521
Copy OK

Track 3
Filename D:\FLAC\Organized Konfusion - s-t (1991) [FLAC]\03 - Walk Into The Sun.wav

Pre-gap length 0:00:01.49

Peak level 94.6 %
Track quality 100.0 %
Test CRC 743AE64E
Copy CRC 743AE64E
Copy OK

Track 4
Filename D:\FLAC\Organized Konfusion - s-t (1991) [FLAC]\04 - Releasing Hypnotical Gases.wav

Pre-gap length 0:00:01.72

Peak level 94.6 %
Track quality 100.0 %
Test CRC C928573B
Copy CRC C928573B
Copy OK

Track 5
Filename D:\FLAC\Organized Konfusion - s-t (1991) [FLAC]\05 - Audience Pleasers.wav

Pre-gap length 0:00:00.81

Peak level 94.6 %
Track quality 100.0 %
Test CRC DFB6540C
Copy CRC DFB6540C
Copy OK

Track 6
Filename D:\FLAC\Organized Konfusion - s-t (1991) [FLAC]\06 - Jiminez Criqueta.wav

Pre-gap length 0:00:01.65

Peak level 94.6 %
Track quality 100.0 %
Test CRC 4CD27C46
Copy CRC 4CD27C46
Copy OK

Track 7
Filename D:\FLAC\Organized Konfusion - s-t (1991) [FLAC]\07 - Prisoners Of War.wav

Pre-gap length 0:00:01.45

Peak level 95.9 %
Track quality 100.0 %
Test CRC 26AE56AD
Copy CRC 26AE56AD
Copy OK

Track 8
Filename D:\FLAC\Organized Konfusion - s-t (1991) [FLAC]\08 - The Rough Side Of Town.wav

Pre-gap length 0:00:01.98

Peak level 89.6 %
Track quality 100.0 %
Test CRC AD6CBAFD
Copy CRC AD6CBAFD
Copy OK

Track 9
Filename D:\FLAC\Organized Konfusion - s-t (1991) [FLAC]\09 - Organized Konfusion.wav

Pre-gap length 0:00:01.62

Peak level 100.0 %
Track quality 99.9 %
Test CRC 14D58439
Copy CRC 14D58439
Copy OK

Track 10
Filename D:\FLAC\Organized Konfusion - s-t (1991) [FLAC]\10 - P.S. 48.wav

Pre-gap length 0:00:01.78

Peak level 94.6 %
Track quality 100.0 %
Test CRC 9C13E0AD
Copy CRC 9C13E0AD
Copy OK

Track 11
Filename D:\FLAC\Organized Konfusion - s-t (1991) [FLAC]\11 - Roosevelt Franklin.wav

Pre-gap length 0:00:01.01

Peak level 94.6 %
Track quality 99.9 %
Test CRC F4F22021
Copy CRC F4F22021
Copy OK

Track 12
Filename D:\FLAC\Organized Konfusion - s-t (1991) [FLAC]\12 - Who Stole My Last Piece Of Chicken (Remix).wav

Pre-gap length 0:00:00.88

Peak level 100.0 %
Track quality 100.0 %
Test CRC 5CE54C18
Copy CRC 5CE54C18
Copy OK

Track 13
Filename D:\FLAC\Organized Konfusion - s-t (1991) [FLAC]\13 - Open Your Eyes.wav

Pre-gap length 0:00:01.45

Peak level 99.0 %
Track quality 100.0 %
Test CRC 10B4DDCC
Copy CRC 10B4DDCC
Copy OK

Track 14
Filename D:\FLAC\Organized Konfusion - s-t (1991) [FLAC]\14 - Intro.wav

Pre-gap length 0:00:02.34

Peak level 99.6 %
Track quality 100.0 %
Test CRC F10EF216
Copy CRC F10EF216
Copy OK

Track 15
Filename D:\FLAC\Organized Konfusion - s-t (1991) [FLAC]\15 - Who Stole My Last Piece Of Chicken .wav

Pre-gap length 0:00:01.81

Peak level 100.0 %
Track quality 100.0 %
Test CRC F00CA952
Copy CRC F00CA952
Copy OK

No errors occured


End of status report