Subcategories

10cc - Alive (1993) [Creative Man Discs, 1994]

Posted By: Andi_Deris
10cc - Alive (1993) [Creative Man Discs, 1994]

10cc - Alive (1993) [Creative Man Discs, 1994]
EAC Rip | FLAC: Image+Cue+Log | 489 Mb | MP3 CBR 320 kbps | 183 Mb | Scans | 78 Mb | Time: 01:14:16
Creative Man Discs | CMCD 010
Pop Rock, Soft Rock, Art Rock

10cc Alive - the third live album from the band, recorded live in Japan in 1993. The album tends to drag a little bit in the middle, but overall this album is quite nice. The sound quality is very good for a live album and the band play with an energy.

10cc - Alive (1993) [Creative Man Discs, 1994]




Track Listing

01. The Wall Street Shuffle (04:50)
02. I'm Mandy, Fly Me (05:49)
03. Good Morning Judge (03:06)
04. Welcome To Paradise (05:22)
05. The Things We Do For Love (03:44)
06. Across The Universe (04:09)
07. The Stars Didn't Show (04:47)
08. Art For Art's Sake (07:48)
09. Feel The Benefit (14:16)
10. Dreadlock Holiday (06:06)
11. I'm Not In Love (06:41)
12. The Bullets Medley: a) Rubber Bullets b) Silly Love c) Life Is A Minestrone (07:38)

Produced by Eric Stewart

The Band

• Eric Stewart - vocals, guitars, keyboards
• Graham Gouldman - vocals, bass, guitars
• Rick Fenn - vocals, guitars, bass
• Stuart Tosh - vocals, percussion
• Stephen Pigott - keyboards
Gary Wallis - drums

Exact Audio Copy V1.0 beta 3 from 29. August 2011

EAC extraction logfile from 7. February 2014, 21:26

10cc / Alive

Used drive : PLEXTOR DVDR PX-L890SA Adapter: 1 ID: 0

Read mode : Secure
Utilize accurate stream : Yes
Defeat audio cache : Yes
Make use of C2 pointers : No

Read offset correction : 6
Overread into Lead-In and Lead-Out : No
Fill up missing offset samples with silence : Yes
Delete leading and trailing silent blocks : No
Null samples used in CRC calculations : Yes
Used interface : Native Win32 interface for Win NT & 2000

Used output format : User Defined Encoder
Selected bitrate : 768 kBit/s
Quality : High
Add ID3 tag : No
Command line compressor : G:\Program Files\Exact Audio Copy\FLAC\FLAC.EXE
Additional command line options : -V -8 -T "Date=%year%" -T "Genre=%genre%" %source%


TOC of the extracted CD

Track | Start | Length | Start sector | End sector
––––––––––––––––––––––––––––-
1 | 0:00.00 | 4:50.05 | 0 | 21754
2 | 4:50.05 | 5:48.47 | 21755 | 47901
3 | 10:38.52 | 3:06.28 | 47902 | 61879
4 | 13:45.05 | 5:21.52 | 61880 | 86006
5 | 19:06.57 | 3:43.60 | 86007 | 102791
6 | 22:50.42 | 4:08.43 | 102792 | 121434
7 | 26:59.10 | 4:46.55 | 121435 | 142939
8 | 31:45.65 | 7:47.70 | 142940 | 178034
9 | 39:33.60 | 14:16.20 | 178035 | 242254
10 | 53:50.05 | 6:06.22 | 242255 | 269726
11 | 59:56.27 | 6:41.30 | 269727 | 299831
12 | 66:37.57 | 7:37.33 | 299832 | 334139


Range status and errors

Selected range

Filename H:\MUSIC\10CC\1993. 10CC - Alive (Creative CMCD 010, UK)\10cc - Alive.wav

Peak level 100.0 %
Extraction speed 6.7 X
Range quality 100.0 %
Test CRC 224A1723
Copy CRC 224A1723
Copy OK

No errors occurred


AccurateRip summary

Track 1 accurately ripped (confidence 2) [904EF459] (AR v2)
Track 2 accurately ripped (confidence 2) [0D4CCAD8] (AR v2)
Track 3 accurately ripped (confidence 2) [B2D85995] (AR v2)
Track 4 accurately ripped (confidence 2) [89A64770] (AR v2)
Track 5 accurately ripped (confidence 2) [14A50808] (AR v2)
Track 6 accurately ripped (confidence 2) [1999948F] (AR v2)
Track 7 accurately ripped (confidence 2) [593345B6] (AR v2)
Track 8 accurately ripped (confidence 2) [9ED844A9] (AR v2)
Track 9 accurately ripped (confidence 2) [803A75B3] (AR v2)
Track 10 accurately ripped (confidence 2) [5374FA24] (AR v1)
Track 11 accurately ripped (confidence 2) [A7BAC2AD] (AR v1)
Track 12 accurately ripped (confidence 1) [0C274071] (AR v2)

All tracks accurately ripped

End of status report

–– CUETools DB Plugin V2.1.3

[CTDB TOCID: bfjTs.jO2xGFiwOQzI88H0BaepM-] found, Submit result: bfjTs.jO2xGFiwOQzI88H0BaepM- has been confirmed
[40746461] (1/1) Accurately ripped


==== Log checksum 50EB2CE5AF5B546992EEE3F3E344B1652F7F1997F141037DA768D193DE8A48EB ====


Many thanks to the original uploader: snakesharmer