10cc - The Best Of 10cc Live (2007) Repost

Posted By: Andi_Deris
10cc - The Best Of 10cc Live (2007) Repost

10cc - The Best Of 10cc Live (2007)
EAC Rip | FLAC: Image+Cue+Log | 371 Mb | MP3 CBR 320 kbps | 136 Mb | Scans | Time: 47:23
The Mail On Sunday | MOS2007SM1GB
Pop Rock, Soft Rock, Art Rock

The Best of 10cc Live is a 2007 live compilation album by the pop band 10cc. The album was given away free with the British newspaper The Mail on Sunday in June 2007 to promote the band's 2007 June/July UK tour and the recent release of the studio compilation Greatest Hits … And More. Of note is the inclusion of the song "Welcome To Paradise", which was never released as a single and has never appeared on any "best of" or "greatest hits" compilation from the band.

10cc - The Best Of 10cc Live (2007) Repost




Track Listing

01. I'm Not In Love (06:04)
02. Dreadlock Holiday (04:52)
03. I'm Mandy Fly Me (05:13)
04. Art For Art's Sake (07:43)
05. The Things We Do For Love (03:22)
06. Good Morning Judge (03:00)
07. The Wall Street Shuffle (04:28)
08. Welcome To Paradise (05:08)
09. Rubber Bullets (01:53)
10. Silly Love (01:45)
11. Life Is A Minestrone (03:55)

The Band

• Graham Gouldman - bass, vocals, guitar
• Rick Fenn - guitar, vocals
• Paul Burgess - drums
• Mike Stevens - keyboards, vocals
• Mick Wilson - percussion, vocals
• Keith Hayman - keyboards, vocals

Exact Audio Copy V1.0 beta 3 from 29. August 2011

EAC extraction logfile from 3. February 2014, 18:40

10cc / The Best Of 10cc Live

Used drive : PLEXTOR DVDR PX-L890SA Adapter: 1 ID: 0

Read mode : Secure
Utilize accurate stream : Yes
Defeat audio cache : Yes
Make use of C2 pointers : No

Read offset correction : 6
Overread into Lead-In and Lead-Out : No
Fill up missing offset samples with silence : Yes
Delete leading and trailing silent blocks : No
Null samples used in CRC calculations : Yes
Used interface : Native Win32 interface for Win NT & 2000

Used output format : User Defined Encoder
Selected bitrate : 768 kBit/s
Quality : High
Add ID3 tag : No
Command line compressor : G:\Program Files\Exact Audio Copy\FLAC\FLAC.EXE
Additional command line options : -V -8 -T "Date=%year%" -T "Genre=%genre%" %source%


TOC of the extracted CD

Track | Start | Length | Start sector | End sector
––––––––––––––––––––––––––––-
1 | 0:00.00 | 6:04.30 | 0 | 27329
2 | 6:04.30 | 4:51.55 | 27330 | 49209
3 | 10:56.10 | 5:12.58 | 49210 | 72667
4 | 16:08.68 | 7:42.50 | 72668 | 107367
5 | 23:51.43 | 3:21.62 | 107368 | 122504
6 | 27:13.30 | 3:00.08 | 122505 | 136012
7 | 30:13.38 | 4:28.22 | 136013 | 156134
8 | 34:41.60 | 5:07.70 | 156135 | 179229
9 | 39:49.55 | 1:52.43 | 179230 | 187672
10 | 41:42.23 | 1:45.15 | 187673 | 195562
11 | 43:27.38 | 3:54.55 | 195563 | 213167


Range status and errors

Selected range

Filename H:\MUSIC\10CC\2007. 10CC - The Best Of 10cc Live (Spin MOS2007SM1GB, EU)\The Best Of 10cc Live.wav

Peak level 98.2 %
Extraction speed 5.3 X
Range quality 99.9 %
Test CRC 771529C3
Copy CRC 771529C3
Copy OK

No errors occurred


AccurateRip summary

Track 1 accurately ripped (confidence 19) [DB23B690] (AR v2)
Track 2 accurately ripped (confidence 19) [C145DF25] (AR v2)
Track 3 accurately ripped (confidence 19) [A41BC453] (AR v2)
Track 4 accurately ripped (confidence 19) [0B5D27E3] (AR v2)
Track 5 accurately ripped (confidence 19) [2523943F] (AR v2)
Track 6 accurately ripped (confidence 19) [8A04B5F8] (AR v2)
Track 7 accurately ripped (confidence 19) [AD943C5B] (AR v2)
Track 8 accurately ripped (confidence 19) [E47334CC] (AR v2)
Track 9 accurately ripped (confidence 19) [DE6B7752] (AR v2)
Track 10 accurately ripped (confidence 19) [7129BA3D] (AR v2)
Track 11 accurately ripped (confidence 19) [991BCE01] (AR v2)

All tracks accurately ripped

End of status report

–– CUETools DB Plugin V2.1.3

[CTDB TOCID: 6DhOEtY6beD2JgCs_PDeFKl1gtk-] found, Submit result: 6DhOEtY6beD2JgCs_PDeFKl1gtk- has been confirmed
[bd39a913] (8/8) Accurately ripped


==== Log checksum E9D1B530EB2F33B213C2037DE8BD13F38301D604179728BE9CE6852EC78C39A1 ====


Many thanks to the original uploader: snakesharmer