Royal Scottish National Orchestra - 125 Years of the Royal Scottish National Orchestra (2016) {2CD Set Chandos CHAN 241-55}

Posted By: ruskaval
Royal Scottish National Orchestra - 125 Years of the Royal Scottish National Orchestra (2016) {2CD Set Chandos CHAN 241-55}

Royal Scottish National Orchestra - 125 Years of the Royal Scottish National Orchestra (2016) {2CD Set Chandos CHAN 241-55}
EAC rip (secure mode) | FLAC (tracks)+CUE+LOG -> 712 Mb | MP3 @320 -> 382 Mb
Full Artwork @ 300 dpi (png) -> 17 Mb | 5% repair rar
© 2016 Chandos Records | CHAN 241-55
Classical / Orchestral

In the 2015 / 2016 season, the Royal Scottish National Orchestra celebrates a proud 125-year history of bringing the best in classical music performances to audiences right across Scotland and beyond. Marking its recording relationship with the Orchestra, Chandos has compiled a two-disc set (at the price of one CD) of the finest of thirty years of recordings that have shaped the reputation of the Orchestra as well as the label.

The RSNO has amassed a tremendous discography on Chandos over the years, including great recording series devoted to works by Dvorak, Elgar, and Prokofiev. Now on SACD, its releases continue to receive high praise.
Royal Scottish National Orchestra - 125 Years of the Royal Scottish National Orchestra (2016) {2CD Set Chandos CHAN 241-55}

Celebrating the Royal Scottish National Orchestra's 125th anniversary, this double CD from Chandos samples recordings made between 1973 and 2013, under such conductors as Alexander Gibson, Neeme Järvi, Matthias Bamert, Peter Oundjian, Bryden Thomson, and Stéphane Denève. The program offers a mix of Romantic and modern pieces and excerpts by Richard Wagner, Richard Strauss, Sergey Prokofiev, Felix Mendelssohn, Camille Saint-Saëns, Jean Sibelius, Dmitry Shostakovich, and many other composers who have been championed by this Scottish orchestra since its founding in 1891. While one may wish recordings by John Barbirolli, George Szell, Walter Süsskind, and other conductors of earlier years had been included in this collection, the orchestra's broad repertoire is well represented and a feeling for the group's history is adequately conveyed.
Royal Scottish National Orchestra - 125 Years of the Royal Scottish National Orchestra (2016) {2CD Set Chandos CHAN 241-55}


Chandos INFO

Track Listing
CD1

01 - Wagner - Prelude to 'Tristan und Isolde', WWV 90
02 - MacCunn - Land of the Mountain and the Flood, op.3
03 - Nielsen - from Symphony No. 4, op.29, FS 76 'Det Uudslukkelige' - IV. Allegro - Glorioso
04 - Enescu - Romanian Rhapsody, op.11 no.1
05 - Webern - Passacaglia for Orchestra, op.1
06 - Strauss - from 'Vier letzte Lieder', op.posth. 'September'
07 - Holst - from 'The Planets', op.32 - 1. Mars. The Bringer of War
08 - Holst - from 'The Planets', op.32 - 2. Jupiter. The Bringer of Jollity
09 - Prokofiev - from 'Alexander Nevsky', op.78 - V. The Battle on the Ice

Royal Scottish National Orchestra - 125 Years of the Royal Scottish National Orchestra (2016) {2CD Set Chandos CHAN 241-55}


CD2
01 - Mendelssohn - The Hebrides, op.26 - Overture
02 - Glazunov - from 'The Seasons', op.67 - Introduction -
03 - Glazunov - from 'The Seasons', op.67 - Scene 1. L'Hiver -
04 - Glazunov - from 'The Seasons', op.67 - Variation 1. Le Givre -
05 - Glazunov - from 'The Seasons', op.67 - Variation 2. La Glace -
06 - Glazunov - from 'The Seasons', op.67 - Variation 3. La Grele
07 - Saint-Saens - Danse macabre, op.40
08 - Shostakovich - from Violin Concerto No. 2, op.129 - I. Moderato
09 - Debussy - from 'Nocturnes' - III. Sirenes
10 - Prokofiev - from 'Lieutenant Kije', op.60 - IV. Troika
11 - Sibelius - from Symphony No. 5, op.82 - III. Allegro molto
12 - Martinu - from Symphony No. 1, H 289 - III. Largo
13 - Adams - from 'Harmonielehre' - III. Meister Eckhardt and Quackie

Royal Scottish National Orchestra - 125 Years of the Royal Scottish National Orchestra (2016) {2CD Set Chandos CHAN 241-55}


Exact Audio Copy V1.3 from 2. September 2016

EAC extraction logfile from 31. May 2017, 22:43

Royal Scottish National Orchestra / 125 years of the Royal Scottish National Orchestra (CD1)

Used drive : ASUS DRW-24B1ST i Adapter: 1 ID: 0

Read mode : Secure
Utilize accurate stream : Yes
Defeat audio cache : Yes
Make use of C2 pointers : No

Read offset correction : 6
Overread into Lead-In and Lead-Out : No
Fill up missing offset samples with silence : Yes
Delete leading and trailing silent blocks : No
Null samples used in CRC calculations : Yes
Used interface : Native Win32 interface for Win NT & 2000
Gap handling : Appended to previous track

Used output format : User Defined Encoder
Selected bitrate : 128 kBit/s
Quality : High
Add ID3 tag : No
Command line compressor : C:\Program Files (x86)\Exact Audio Copy\Flac\flac.exe
Additional command line options : -8 -V -T "ARTIST=%artist%" -T "TITLE=%title%" -T "ALBUM=%albumtitle%" -T "DATE=%year%" -T "TRACKNUMBER=%tracknr%" -T "TOTALTRACKS=%numtracks%" -T "GENRE=%genre%" -T "ALBUMARTIST=%albumartist%" -T "ALBUM ARTIST=%albumartist%" -T "COMMENT=EAC Secure Mode, Test & Copy, AccurateRip, FLAC -8" %source%


TOC of the extracted CD

Track | Start | Length | Start sector | End sector
––––––––––––––––––––––––––––-
1 | 0:00.00 | 6:38.38 | 0 | 29887
2 | 6:38.38 | 9:49.65 | 29888 | 74127
3 | 16:28.28 | 10:05.10 | 74128 | 119512
4 | 26:33.38 | 13:22.65 | 119513 | 179727
5 | 39:56.28 | 10:55.00 | 179728 | 228852
6 | 50:51.28 | 4:16.10 | 228853 | 248062
7 | 55:07.38 | 7:20.00 | 248063 | 281062
8 | 62:27.38 | 7:28.65 | 281063 | 314727
9 | 69:56.28 | 13:02.47 | 314728 | 373424


Track 1

Filename D:\_Post\125_Years\CD1\01 - Wagner - Prelude to 'Tristan und Isolde', WWV 90.wav

Pre-gap length 0:00:02.00

Peak level 60.3 %
Extraction speed 6.2 X
Track quality 100.0 %
Test CRC E43DBA48
Copy CRC E43DBA48
Accurately ripped (confidence 1) [251197D8] (AR v2)
Copy OK

Track 2

Filename D:\_Post\125_Years\CD1\02 - MacCunn - Land of the Mountain and the Flood, op.3.wav

Peak level 97.7 %
Extraction speed 7.3 X
Track quality 100.0 %
Test CRC F07212BA
Copy CRC F07212BA
Accurately ripped (confidence 1) [985891EE] (AR v2)
Copy OK

Track 3

Filename D:\_Post\125_Years\CD1\03 - Nielsen - from Symphony No. 4, op.29, FS 76 'Det Uudslukkelige' - IV. Allegro - Glorioso.wav

Peak level 100.0 %
Extraction speed 8.3 X
Track quality 100.0 %
Test CRC 708CABCA
Copy CRC 708CABCA
Accurately ripped (confidence 1) [B8E37DEA] (AR v2)
Copy OK

Track 4

Filename D:\_Post\125_Years\CD1\04 - Enescu - Romanian Rhapsody, op.11 no.1.wav

Peak level 99.1 %
Extraction speed 9.4 X
Track quality 100.0 %
Test CRC 6CCD4741
Copy CRC 6CCD4741
Accurately ripped (confidence 1) [C4240740] (AR v2)
Copy OK

Track 5

Filename D:\_Post\125_Years\CD1\05 - Webern - Passacaglia for Orchestra, op.1.wav

Peak level 91.5 %
Extraction speed 9.5 X
Track quality 99.9 %
Test CRC 1F200F73
Copy CRC 1F200F73
Accurately ripped (confidence 1) [786C8844] (AR v2)
Copy OK

Track 6

Filename D:\_Post\125_Years\CD1\06 - Strauss - from 'Vier letzte Lieder', op.posth. 'September'.wav

Peak level 70.6 %
Extraction speed 10.0 X
Track quality 100.0 %
Test CRC 789ADD6F
Copy CRC 789ADD6F
Accurately ripped (confidence 1) [30A97B27] (AR v2)
Copy OK

Track 7

Filename D:\_Post\125_Years\CD1\07 - Holst - from 'The Planets', op.32 - 1. Mars. The Bringer of War.wav

Peak level 99.1 %
Extraction speed 10.7 X
Track quality 100.0 %
Test CRC 25F967E2
Copy CRC 25F967E2
Accurately ripped (confidence 1) [58DC7941] (AR v2)
Copy OK

Track 8

Filename D:\_Post\125_Years\CD1\08 - Holst - from 'The Planets', op.32 - 2. Jupiter. The Bringer of Jollity.wav

Peak level 99.4 %
Extraction speed 10.2 X
Track quality 99.9 %
Test CRC 940B6B6E
Copy CRC 940B6B6E
Accurately ripped (confidence 1) [A4A3AD40] (AR v2)
Copy OK

Track 9

Filename D:\_Post\125_Years\CD1\09 - Prokofiev - from 'Alexander Nevsky', op.78 - V. The Battle on the Ice.wav

Peak level 98.7 %
Extraction speed 12.3 X
Track quality 100.0 %
Test CRC 62350D00
Copy CRC 62350D00
Accurately ripped (confidence 1) [C6B6DFD9] (AR v2)
Copy OK


All tracks accurately ripped

No errors occurred

End of status report

–– CUETools DB Plugin V2.1.6

[CTDB TOCID: O65wmKNxBexLuydToO4FVfwv22E-] found
Submit result: O65wmKNxBexLuydToO4FVfwv22E- has been confirmed
Track | CTDB Status
1 | (2/2) Accurately ripped
2 | (2/2) Accurately ripped
3 | (2/2) Accurately ripped
4 | (2/2) Accurately ripped
5 | (2/2) Accurately ripped
6 | (2/2) Accurately ripped
7 | (2/2) Accurately ripped
8 | (2/2) Accurately ripped
9 | (2/2) Accurately ripped


==== Log checksum FCEBCDAF0B9ECDB509373083D860C0E7A636F530866035AA7B538BC0071F80FC ====

Exact Audio Copy V1.3 from 2. September 2016

EAC extraction logfile from 1. June 2017, 15:25

Royal Scottish National Orchestra / 125 years of the Royal Scottish National Orchestra (CD2)

Used drive : ASUS DRW-24B1ST i Adapter: 1 ID: 0

Read mode : Secure
Utilize accurate stream : Yes
Defeat audio cache : Yes
Make use of C2 pointers : No

Read offset correction : 6
Overread into Lead-In and Lead-Out : No
Fill up missing offset samples with silence : Yes
Delete leading and trailing silent blocks : No
Null samples used in CRC calculations : Yes
Used interface : Native Win32 interface for Win NT & 2000
Gap handling : Appended to previous track

Used output format : User Defined Encoder
Selected bitrate : 128 kBit/s
Quality : High
Add ID3 tag : No
Command line compressor : C:\Program Files (x86)\Exact Audio Copy\Flac\flac.exe
Additional command line options : -8 -V -T "ARTIST=%artist%" -T "TITLE=%title%" -T "ALBUM=%albumtitle%" -T "DATE=%year%" -T "TRACKNUMBER=%tracknr%" -T "TOTALTRACKS=%numtracks%" -T "GENRE=%genre%" -T "ALBUMARTIST=%albumartist%" -T "ALBUM ARTIST=%albumartist%" -T "COMMENT=EAC Secure Mode, Test & Copy, AccurateRip, FLAC -8" %source%


TOC of the extracted CD

Track | Start | Length | Start sector | End sector
––––––––––––––––––––––––––––-
1 | 0:00.00 | 10:17.38 | 0 | 46312
2 | 10:17.38 | 1:44.65 | 46313 | 54177
3 | 12:02.28 | 1:22.65 | 54178 | 60392
4 | 13:25.18 | 0:54.20 | 60393 | 64462
5 | 14:19.38 | 1:53.45 | 64463 | 72982
6 | 16:13.08 | 1:02.00 | 72983 | 77632
7 | 17:15.08 | 6:56.00 | 77633 | 108832
8 | 24:11.08 | 13:02.70 | 108833 | 167552
9 | 37:14.03 | 10:14.60 | 167553 | 213662
10 | 47:28.63 | 3:08.00 | 213663 | 227762
11 | 50:36.63 | 9:01.00 | 227763 | 268337
12 | 59:37.63 | 8:13.50 | 268338 | 305362
13 | 67:51.38 | 11:29.12 | 305363 | 357049


Track 1

Filename D:\_Post\125_Years\CD2\01 - Mendelssohn - The Hebrides, op.26 - Overture.wav

Pre-gap length 0:00:02.00

Peak level 99.4 %
Extraction speed 2.0 X
Track quality 99.9 %
Test CRC 0F9D604D
Copy CRC 0F9D604D
Track not present in AccurateRip database
Copy OK

Track 2

Filename D:\_Post\125_Years\CD2\02 - Glazunov - from 'The Seasons', op.67 - Introduction -.wav

Peak level 95.5 %
Extraction speed 2.1 X
Track quality 100.0 %
Test CRC BC42ED01
Copy CRC BC42ED01
Track not present in AccurateRip database
Copy OK

Track 3

Filename D:\_Post\125_Years\CD2\03 - Glazunov - from 'The Seasons', op.67 - Scene 1. L'Hiver -.wav

Peak level 58.7 %
Extraction speed 2.0 X
Track quality 100.0 %
Test CRC AB8A52B2
Copy CRC AB8A52B2
Track not present in AccurateRip database
Copy OK

Track 4

Filename D:\_Post\125_Years\CD2\04 - Glazunov - from 'The Seasons', op.67 - Variation 1. Le Givre -.wav

Peak level 58.8 %
Extraction speed 1.8 X
Track quality 100.0 %
Test CRC D7C6A441
Copy CRC D7C6A441
Track not present in AccurateRip database
Copy OK

Track 5

Filename D:\_Post\125_Years\CD2\05 - Glazunov - from 'The Seasons', op.67 - Variation 2. La Glace -.wav

Peak level 93.0 %
Extraction speed 2.3 X
Track quality 100.0 %
Test CRC 874ACF7F
Copy CRC 874ACF7F
Track not present in AccurateRip database
Copy OK

Track 6

Filename D:\_Post\125_Years\CD2\06 - Glazunov - from 'The Seasons', op.67 - Variation 3. La Grele.wav

Peak level 24.0 %
Extraction speed 1.9 X
Track quality 100.0 %
Test CRC BAB5E564
Copy CRC BAB5E564
Track not present in AccurateRip database
Copy OK

Track 7

Filename D:\_Post\125_Years\CD2\07 - Saint-Saens - Danse macabre, op.40.wav

Peak level 93.2 %
Extraction speed 2.5 X
Track quality 99.9 %
Test CRC 9C50F1B6
Copy CRC 9C50F1B6
Track not present in AccurateRip database
Copy OK

Track 8

Filename D:\_Post\125_Years\CD2\08 - Shostakovich - from Violin Concerto No. 2, op.129 - I. Moderato.wav

Peak level 85.1 %
Extraction speed 3.5 X
Track quality 100.0 %
Test CRC 7C3D6D15
Copy CRC 7C3D6D15
Track not present in AccurateRip database
Copy OK

Track 9

Filename D:\_Post\125_Years\CD2\09 - Debussy - from 'Nocturnes' - III. Sirenes.wav

Peak level 34.0 %
Extraction speed 3.8 X
Track quality 100.0 %
Test CRC 827CCDE7
Copy CRC 827CCDE7
Track not present in AccurateRip database
Copy OK

Track 10

Filename D:\_Post\125_Years\CD2\10 - Prokofiev - from 'Lieutenant Kije', op.60 - IV. Troika.wav

Peak level 93.4 %
Extraction speed 3.6 X
Track quality 100.0 %
Test CRC BD53D21F
Copy CRC BD53D21F
Track not present in AccurateRip database
Copy OK

Track 11

Filename D:\_Post\125_Years\CD2\11 - Sibelius - from Symphony No. 5, op.82 - III. Allegro molto.wav

Peak level 93.4 %
Extraction speed 4.2 X
Track quality 100.0 %
Test CRC 979E9BEA
Copy CRC 979E9BEA
Track not present in AccurateRip database
Copy OK

Track 12

Filename D:\_Post\125_Years\CD2\12 - Martinu - from Symphony No. 1, H 289 - III. Largo.wav

Peak level 95.4 %
Extraction speed 3.7 X
Track quality 99.9 %
Test CRC 1081198B
Copy CRC 1081198B
Track not present in AccurateRip database
Copy OK

Track 13

Filename D:\_Post\125_Years\CD2\13 - Adams - from 'Harmonielehre' - III. Meister Eckhardt and Quackie.wav

Peak level 97.3 %
Extraction speed 4.7 X
Track quality 100.0 %
Test CRC 78620940
Copy CRC 78620940
Track not present in AccurateRip database
Copy OK


None of the tracks are present in the AccurateRip database

No errors occurred

End of status report

–– CUETools DB Plugin V2.1.6

[CTDB TOCID: hMQgAYGhOk8IvBK38fsrCOR45ZM-] disk not present in database
Submit result: hMQgAYGhOk8IvBK38fsrCOR45ZM- has been uploaded


==== Log checksum 2CE22BB36A5B465C40BC48D6E98381BE736F9D5BC2F457AD35E548D5D3A0C0AE ====


Royal Scottish National Orchestra - 125 Years of the Royal Scottish National Orchestra (2016) {2CD Set Chandos CHAN 241-55}



===