Tags
Language
Tags

VA - Zorba The Greek: The Best Instrumentals & Songs (2005) {Super Sound}

Posted By: TestTickles
VA - Zorba The Greek: The Best Instrumentals & Songs (2005) {Super Sound}

VA - Zorba The Greek: The Best Instrumentals & Songs (2005) {Super Sound}
EAC Rip | FLAC with CUE and log | scans | 369 mb
MP3 CBR 320kbps | RAR | 129 mb
Genre: Laïkó, Greek folk

Zorba The Greek: The Best Instrumentals & Songs is a 2005 compilation of a form of Greek music known as Laïkó. The music is uncredited so it remains who performs what, meaning if it is a series of musicians or just one group entirely. Actual release date is also known, it may be from sometime in the 1990's, perhaps 2005 or even much older. This was released by Super Sound.

VA - Zorba The Greek: The Best Instrumentals & Songs (2005) {Super Sound}

01. Zorbas
02. Strosse To Stroma Sou
03. Hassapiko
04. Vraho-vraho
05. Aptalikos Horos
06. Margarita Margaro
07. Summer Time
08. Kaimos
09. Ena Vradi Stin Taverna
10. Hassaposervikos Horos
11. Doxa To Theo
12. Hamogelo Tou Iliou
13. Ena To Helidoni
14. Bouzouki
15. Iliovassilema
16. Ta Pedia Tis Aminas
17. Galasio Oniro

Exact Audio Copy V1.0 beta 3 from 29. August 2011

EAC extraction logfile from 12. March 2014, 10:58

VA / Zorba The Greek: The Best Instrumentals & Songs

Used drive : TEAC DVD-ROM DV-28SW Adapter: 1 ID: 0

Read mode : Secure
Utilize accurate stream : Yes
Defeat audio cache : Yes
Make use of C2 pointers : No

Read offset correction : 6
Overread into Lead-In and Lead-Out : No
Fill up missing offset samples with silence : Yes
Delete leading and trailing silent blocks : No
Null samples used in CRC calculations : Yes
Used interface : Native Win32 interface for Win NT & 2000
Gap handling : Appended to previous track

Used output format : User Defined Encoder
Selected bitrate : 1024 kBit/s
Quality : High
Add ID3 tag : No
Command line compressor : C:\Program Files (x86)\Kodeki za Glasbo\FLAC\flac.exe
Additional command line options : -8 -V -T "artist=%artist%" -T "title=%title%" -T "album=%albumtitle%" -T "date=%year%" -T "tracknumber=%tracknr%" -T "genre=%genre%" -5 %source%


TOC of the extracted CD

Track | Start | Length | Start sector | End sector
––––––––––––––––––––––––––––-
1 | 0:00.00 | 3:50.21 | 0 | 17270
2 | 3:50.21 | 3:15.33 | 17271 | 31928
3 | 7:05.54 | 3:43.17 | 31929 | 48670
4 | 10:48.71 | 2:23.70 | 48671 | 59465
5 | 13:12.66 | 3:21.62 | 59466 | 74602
6 | 16:34.53 | 3:12.17 | 74603 | 89019
7 | 19:46.70 | 2:52.25 | 89020 | 101944
8 | 22:39.20 | 3:30.00 | 101945 | 117694
9 | 26:09.20 | 3:35.29 | 117695 | 133848
10 | 29:44.49 | 2:52.24 | 133849 | 146772
11 | 32:36.73 | 3:03.00 | 146773 | 160497
12 | 35:39.73 | 2:57.68 | 160498 | 173840
13 | 38:37.66 | 3:28.04 | 173841 | 189444
14 | 42:05.70 | 3:54.65 | 189445 | 207059
15 | 46:00.60 | 3:39.19 | 207060 | 223503
16 | 49:40.04 | 3:26.18 | 223504 | 238971
17 | 53:06.22 | 2:53.49 | 238972 | 251995


Track 1

Filename C:\cuntfist\FLAC\VA - Zorba The Greek, The Best Instrumentals & Songs (2005) [FLAC] {Super Sound}\01. M. Theodorakis and E. Goufas - Zorbas.wav

Pre-gap length 0:00:02.00

Peak level 67.2 %
Extraction speed 2.7 X
Track quality 100.0 %
Test CRC 291D7F01
Copy CRC 291D7F01
Cannot be verified as accurate (confidence 1) [C7398F12], AccurateRip returned [B2897068] (AR v2)
Copy OK

Track 2

Filename C:\cuntfist\FLAC\VA - Zorba The Greek, The Best Instrumentals & Songs (2005) [FLAC] {Super Sound}\02. M. Theodorakis and I. Kabanelis - Strose To Stroma Sou.wav

Peak level 74.7 %
Extraction speed 3.0 X
Track quality 100.0 %
Test CRC A77A429A
Copy CRC A77A429A
Cannot be verified as accurate (confidence 1) [EC74DEE1], AccurateRip returned [64929AE3] (AR v2)
Copy OK

Track 3

Filename C:\cuntfist\FLAC\VA - Zorba The Greek, The Best Instrumentals & Songs (2005) [FLAC] {Super Sound}\03. V. Politis - Hassapiko.wav

Peak level 68.9 %
Extraction speed 3.2 X
Track quality 100.0 %
Test CRC 0508C421
Copy CRC 0508C421
Cannot be verified as accurate (confidence 1) [758BA137], AccurateRip returned [9D944111] (AR v2)
Copy OK

Track 4

Filename C:\cuntfist\FLAC\VA - Zorba The Greek, The Best Instrumentals & Songs (2005) [FLAC] {Super Sound}\04. M. Theodorakis and D. Christodoulou - Vraho Vraho Ton Kaimo Mou.wav

Peak level 74.7 %
Extraction speed 3.2 X
Track quality 100.0 %
Test CRC 92F9AD7A
Copy CRC 92F9AD7A
Cannot be verified as accurate (confidence 1) [526D414B], AccurateRip returned [DC09D92B] (AR v2)
Copy OK

Track 5

Filename C:\cuntfist\FLAC\VA - Zorba The Greek, The Best Instrumentals & Songs (2005) [FLAC] {Super Sound}\05. Folk - Aptalikos Horos.wav

Peak level 75.0 %
Extraction speed 2.9 X
Track quality 99.9 %
Test CRC F0506A90
Copy CRC F0506A90
Cannot be verified as accurate (confidence 1) [D44721E8], AccurateRip returned [5FE4D042] (AR v2)
Copy OK

Track 6

Filename C:\cuntfist\FLAC\VA - Zorba The Greek, The Best Instrumentals & Songs (2005) [FLAC] {Super Sound}\06. M. Theodorakis - Margarita Margaro.wav

Peak level 61.2 %
Extraction speed 2.9 X
Track quality 99.9 %
Test CRC 30391ADD
Copy CRC 30391ADD
Cannot be verified as accurate (confidence 1) [14BD7BB4], AccurateRip returned [3BE292A4] (AR v2)
Copy OK

Track 7

Filename C:\cuntfist\FLAC\VA - Zorba The Greek, The Best Instrumentals & Songs (2005) [FLAC] {Super Sound}\07. A. Florou and I. Leventi - Summer Time.wav

Peak level 68.1 %
Extraction speed 3.0 X
Track quality 99.9 %
Test CRC 91A2B4F9
Copy CRC 91A2B4F9
Cannot be verified as accurate (confidence 1) [359CFA7D], AccurateRip returned [CED66751] (AR v2)
Copy OK

Track 8

Filename C:\cuntfist\FLAC\VA - Zorba The Greek, The Best Instrumentals & Songs (2005) [FLAC] {Super Sound}\08. M. Theodorakis and D. Christodoulou - Kaimos.wav

Peak level 77.2 %
Extraction speed 4.1 X
Track quality 100.0 %
Test CRC 7B385F4C
Copy CRC 7B385F4C
Cannot be verified as accurate (confidence 1) [53C77BE1], AccurateRip returned [70DEEA20] (AR v2)
Copy OK

Track 9

Filename C:\cuntfist\FLAC\VA - Zorba The Greek, The Best Instrumentals & Songs (2005) [FLAC] {Super Sound}\09. O. Christopoulos and K. Christopoulou - Ena Bradi Stin Taverna.wav

Peak level 96.8 %
Extraction speed 4.3 X
Track quality 100.0 %
Test CRC AABFA3CF
Copy CRC AABFA3CF
Cannot be verified as accurate (confidence 1) [E9904B65], AccurateRip returned [3DFDA4AA] (AR v2)
Copy OK

Track 10

Filename C:\cuntfist\FLAC\VA - Zorba The Greek, The Best Instrumentals & Songs (2005) [FLAC] {Super Sound}\10. O. Christopoulos and K. Christopoulou - Hassaposerbikos Horos.wav

Peak level 90.0 %
Extraction speed 3.3 X
Track quality 99.9 %
Test CRC 5399CA6D
Copy CRC 5399CA6D
Cannot be verified as accurate (confidence 1) [49850668], AccurateRip returned [F1E97595] (AR v2)
Copy OK

Track 11

Filename C:\cuntfist\FLAC\VA - Zorba The Greek, The Best Instrumentals & Songs (2005) [FLAC] {Super Sound}\11. M. Theodorakis and I. Kabanelis - Doxa To Theo.wav

Peak level 67.6 %
Extraction speed 4.4 X
Track quality 100.0 %
Test CRC D042A044
Copy CRC D042A044
Cannot be verified as accurate (confidence 1) [1E3EB53A], AccurateRip returned [29F93EB7] (AR v2)
Copy OK

Track 12

Filename C:\cuntfist\FLAC\VA - Zorba The Greek, The Best Instrumentals & Songs (2005) [FLAC] {Super Sound}\12. O. Christopoulos and K. Christopoulou - Hamogelo Tou Iliou.wav

Peak level 96.8 %
Extraction speed 4.6 X
Track quality 100.0 %
Test CRC 0D618059
Copy CRC 0D618059
Cannot be verified as accurate (confidence 1) [DD645540], AccurateRip returned [AAFE2C94] (AR v2)
Copy OK

Track 13

Filename C:\cuntfist\FLAC\VA - Zorba The Greek, The Best Instrumentals & Songs (2005) [FLAC] {Super Sound}\13. M. Theodorakis and O. Elitis - Ena To Helidoni.wav

Peak level 72.7 %
Extraction speed 4.8 X
Track quality 100.0 %
Test CRC CD2BE00B
Copy CRC CD2BE00B
Cannot be verified as accurate (confidence 1) [9EBDE99E], AccurateRip returned [78925980] (AR v2)
Copy OK

Track 14

Filename C:\cuntfist\FLAC\VA - Zorba The Greek, The Best Instrumentals & Songs (2005) [FLAC] {Super Sound}\14. A. Florou - Bouzouki.wav

Peak level 73.6 %
Extraction speed 5.0 X
Track quality 100.0 %
Test CRC A2DD932D
Copy CRC A2DD932D
Cannot be verified as accurate (confidence 1) [ED7A1461], AccurateRip returned [D901D509] (AR v2)
Copy OK

Track 15

Filename C:\cuntfist\FLAC\VA - Zorba The Greek, The Best Instrumentals & Songs (2005) [FLAC] {Super Sound}\15. A. Florou - Iliovassilema.wav

Peak level 57.8 %
Extraction speed 5.1 X
Track quality 100.0 %
Test CRC AC583F86
Copy CRC AC583F86
Cannot be verified as accurate (confidence 1) [56E65CFE], AccurateRip returned [D480FAEA] (AR v2)
Copy OK

Track 16

Filename C:\cuntfist\FLAC\VA - Zorba The Greek, The Best Instrumentals & Songs (2005) [FLAC] {Super Sound}\16. Folk - Ta Pedia Tis Aminas.wav

Peak level 63.0 %
Extraction speed 5.2 X
Track quality 100.0 %
Test CRC 97D19948
Copy CRC 97D19948
Cannot be verified as accurate (confidence 1) [C9B2B70A], AccurateRip returned [3C15A1C0] (AR v2)
Copy OK

Track 17

Filename C:\cuntfist\FLAC\VA - Zorba The Greek, The Best Instrumentals & Songs (2005) [FLAC] {Super Sound}\17. O. Christopoulos and K. Christopoulou - Galasio Oniro.wav

Peak level 54.5 %
Extraction speed 4.0 X
Track quality 99.9 %
Test CRC F86C03E0
Copy CRC F86C03E0
Cannot be verified as accurate (confidence 1) [878B4628], AccurateRip returned [17004433] (AR v2)
Copy OK


No tracks could be verified as accurate
You may have a different pressing from the one(s) in the database

No errors occurred

End of status report

–– CUETools DB Plugin V2.1.4

[CTDB TOCID: KjSxuZuxKOmcRGqMwRy7t6C5ufk-] found
Submit result: already submitted
Track | CTDB Status
1 | (1/1) Accurately ripped
2 | (1/1) Accurately ripped
3 | (1/1) Accurately ripped
4 | (1/1) Accurately ripped
5 | (1/1) Accurately ripped
6 | (1/1) Accurately ripped
7 | (1/1) Accurately ripped
8 | (1/1) Accurately ripped
9 | (1/1) Accurately ripped
10 | (1/1) Accurately ripped
11 | (1/1) Accurately ripped
12 | (1/1) Accurately ripped
13 | (1/1) Accurately ripped
14 | (1/1) Accurately ripped
15 | (1/1) Accurately ripped
16 | (1/1) Accurately ripped
17 | (1/1) Accurately ripped


==== Log checksum 25A4FC77CAF57C63B23B2809074FF4DC9D6FC1BFF9C9D69435A4C1E729877854 ====


VA - Zorba The Greek: The Best Instrumentals & Songs (2005) {Super Sound}


Thank you to the original uploader.