Subcategories

38 Special - Resolution (1997) [Japanese Ed.]

Posted By: Andi_Deris
38 Special - Resolution (1997) [Japanese Ed.]

38 Special - Resolution (1997) [Japanese Ed.]
EAC Rip | FLAC: Image+Cue+Log | MP3 CBR 320 kbps | Scans
452 Mb | 140 Mb | 87 Mb | Time: 01:00:18
Bareknuckle/Avex D.D., Inc. | AVCB-66019
Rock, Southern Rock

Resolution is the tenth studio album by southern rock band 38 Special, released in 1997. It was their first album since Bone Against Steel in 1991 before reforming in 1996. Long-time collaborator Jim Peterik co-wrote 10 of the album's 13 songs, and also gets his first credit performing with the band (as a backing vocalist).

In their first album in six years, .38 Special comes back with a brace of tunes that recasts the band in contemporary terms. With the core of the group now sweated down to singer Donnie Van Zant, guitarists Don Barnes (back in the lineup for the first time since 1988) and Danny Chauncey and bassist Larry "L.J." Junstrom, the time off between recordings has served the band well. The writing became the thing during the down period and the level of quality songwriting – with much co-written by longtime hit song collaborator Jim Peterik ("Vehicle" by the Ides of March) – takes the band into some new terrain, along with stellar production from Joe Hardy. The first single from the album, "Fade to Blue," is solid pop-rock with a catchy mandolin riff, and tracks like "Changed By Love," "Miracle Man" and the atmospheric acoustic ballad "Saving Grace" and "Homeless Guitar" knock several decibels off their old Southern-boy approach. But the guitars get cranked back to '80s-approved levels for "Shatter the Silence," "Deja Voodoo," "After the Fire Is Gone," and the bluesy shuffle "She Loves to Talk," proving that the band can regurgitate their old Southern rock sound while simultaneously finding new avenues of expression. Proof that an '80s band can still make accessible music at the end of the '90s.

38 Special - Resolution (1997) [Japanese Ed.]




Track Listing

01. Fade To Blue (04:35)
02. Just Can't Leave You Alone (04:24)
03. Deja Vooooo (05:57)
04. Find My Way Back (04:58)
05. Changed By Love (04:53)
06. After The Fire Is Gone (03:45)
07. Miracle Man (04:05)
08. Shelter Me (04:22)
09. Homeless Guitar (05:15)
10. Saving Grace (04:11)
11. She Loves To Talk (03:37)
12. Trouble (05:16)
13. Shatter The Silence (05:00)

Produced by Don Barnes, Danny Chauncey and Joe Hardy

The Band

• Don Barnes - guitar, harmonica, mandolin, vocals, slide guitar
• Danny Chauncey - guitar, keyboards, fretless bass
• Larry Junstrom - bass guitar
• Greg Morrow - drums
• Jim Peterik - backing vocals
• Donnie Van Zant - vocals, acoustic guitars

Exact Audio Copy V1.0 beta 3 from 29. August 2011

EAC extraction logfile from 26. February 2017, 18:07

38 Special / Resolution

Used drive : SlimtypeDVD A DS8A5SH Adapter: 0 ID: 0

Read mode : Secure
Utilize accurate stream : Yes
Defeat audio cache : Yes
Make use of C2 pointers : No

Read offset correction : 6
Overread into Lead-In and Lead-Out : No
Fill up missing offset samples with silence : Yes
Delete leading and trailing silent blocks : No
Null samples used in CRC calculations : Yes
Used interface : Installed external ASPI interface

Used output format : User Defined Encoder
Selected bitrate : 320 kBit/s
Quality : High
Add ID3 tag : No
Command line compressor : C:\Program Files (x86)\Exact Audio Copy\Flac\flac.exe
Additional command line options : -V -8 -T "Date=%year%" -T "Genre=%genre%" %source%


TOC of the extracted CD

Track | Start | Length | Start sector | End sector
––––––––––––––––––––––––––––-
1 | 0:00.00 | 4:34.42 | 0 | 20591
2 | 4:34.42 | 4:24.18 | 20592 | 40409
3 | 8:58.60 | 5:56.45 | 40410 | 67154
4 | 14:55.30 | 4:57.52 | 67155 | 89481
5 | 19:53.07 | 4:53.28 | 89482 | 111484
6 | 24:46.35 | 3:45.05 | 111485 | 128364
7 | 28:31.40 | 4:05.02 | 128365 | 146741
8 | 32:36.42 | 4:21.40 | 146742 | 166356
9 | 36:58.07 | 5:15.20 | 166357 | 190001
10 | 42:13.27 | 4:10.45 | 190002 | 208796
11 | 46:23.72 | 3:37.20 | 208797 | 225091
12 | 50:01.17 | 5:16.00 | 225092 | 248791
13 | 55:17.17 | 4:59.65 | 248792 | 271281
14 | 62:49.07 | 1:33.52 | 282682 | 289708


Range status and errors

Selected range

Filename D:\My Music\38 Special - 1997 Resolution\38 Special - Resolution.wav

Peak level 100.0 %
Extraction speed 2.0 X
Range quality 100.0 %
Test CRC 8ADDFE71
Copy CRC 8ADDFE71
Copy OK

No errors occurred


AccurateRip summary

Track 1 accurately ripped (confidence 1) [F2C0A225] (AR v2)
Track 2 accurately ripped (confidence 1) [9F8F125E] (AR v2)
Track 3 accurately ripped (confidence 1) [F8C4756A] (AR v2)
Track 4 accurately ripped (confidence 1) [775A21AE] (AR v2)
Track 5 accurately ripped (confidence 1) [DD2E7D6D] (AR v2)
Track 6 accurately ripped (confidence 1) [D2840DD0] (AR v2)
Track 7 accurately ripped (confidence 1) [AA60CA9C] (AR v2)
Track 8 accurately ripped (confidence 1) [4568B413] (AR v2)
Track 9 accurately ripped (confidence 1) [CFD79AFA] (AR v2)
Track 10 accurately ripped (confidence 1) [7823E746] (AR v2)
Track 11 accurately ripped (confidence 1) [2FF54190] (AR v2)
Track 12 accurately ripped (confidence 1) [6D76D536] (AR v2)
Track 13 accurately ripped (confidence 1) [AE6311FB] (AR v2)

All tracks accurately ripped

End of status report

==== Log checksum 1D8D657DAC17932977E816DED8C75D4A60C6B0AD3100731A9B150C83D5DD7951 ====


Many thanks to the original uploader: kolushew

SEE also:
38 Special 1977 38 Special [Japanese LTD mini-Vinyl CD 2014]
38 Special 1978 Special Delivery [Japanese LTD mini-Vinyl CD 2014]
38 Special 1982 Special Forces [Japanese Ed. 1994]
38 Special 1999 Live At Sturgis [Japanese Ed. 2000]

Lynyrd Skynyrd 2007 Sounds Of The South/MCA Years 1973-1988 [Japanese LTD mini-LP CD, Promo Box Set]



Password: pass