Tags
Language
Tags
December 2022
Su Mo Tu We Th Fr Sa
27 28 29 30 1 2 3
4 5 6 7 8 9 10
11 12 13 14 15 16 17
18 19 20 21 22 23 24
25 26 27 28 29 30 31

Econoline Crush - The Devil You Know (1997) [FLAC] {Restless/EMI Music}

Posted By: TestTickles
Econoline Crush - The Devil You Know (1997) [FLAC] {Restless/EMI Music}

Econoline Crush - The Devil You Know (1997) {Restless/EMI Music}
EAC Rip | FLAC with CUE and log | scans | 316 mb
MP3 CBR 320 kbps | RAR | 96 mb
Genre: indie rock

The Devil You Know is the 1997 album by Econoline Crush. This was released by Restless Records in association with EMI Music.

Econoline Crush - The Devil You Know (1997) [FLAC] {Restless/EMI Music}

01. Surefire (3:35)
02. Sparkle And Shine (3:42)
03. Deeper (3:17)
04. Hollowman (3:31)
05. Home (3:12)
06. The Devil You Know (4:27)
07. All That You Are (X3) (3:41)
08. Burnt (4:05)
09. Haven't Gone Away (3:46)
10. Elegant (3:40)
11. Razorblades And Bandaides (5:43)
12. (silence) (0:04)
13. (silence) (0:04)
14. (silence) (0:04)
15. (silence) (0:04)
16. (silence) (0:04)
17. (silence) (0:04)
18. (silence) (0:04)
19. (silence) (0:04)
20. (silence) (0:04)
21. (silence) (0:04)
22. (silence) (0:04)
23. Untitled (I Corinthians 13:4-8) (0:53)

MP3 version
11. Razorblades And Bandaides (5:43)
12. Untitled (I Corinthians 13:4-8) (Hidden Track) (0:53)

Exact Audio Copy V0.99 prebeta 4 from 23. January 2008

EAC extraction logfile from 10. May 2009, 9:26

Econoline Crush / The Devil You Know

Used drive : TSSTcorpCD/DVDW SH-S182D Adapter: 3 ID: 1

Read mode : Secure
Utilize accurate stream : Yes
Defeat audio cache : Yes
Make use of C2 pointers : No

Read offset correction : 6
Overread into Lead-In and Lead-Out : No
Fill up missing offset samples with silence : Yes
Delete leading and trailing silent blocks : No
Null samples used in CRC calculations : Yes
Used interface : Installed external ASPI interface
Gap handling : Appended to previous track

Used output format : User Defined Encoder
Selected bitrate : 192 kBit/s
Quality : High
Add ID3 tag : No
Command line compressor : C:\Program Files\Exact Audio Copy\flac.exe
Additional command line options : -8 -A tukey(0.25) -A gauss(0.1875) -b 4096 -V -T "artist=%a" -T "title=%t" -T "album=%g" -T "date=%y" -T "tracknumber=%n" -T "genre=%m" %s –sector-align

TOC of the extracted CD

Track | Start | Length | Start sector | End sector
––––––––––––––––––––––––––––-
1 | 0:00.00 | 3:35.30 | 0 | 16154
2 | 3:35.30 | 3:42.00 | 16155 | 32804
3 | 7:17.30 | 3:17.32 | 32805 | 47611
4 | 10:34.62 | 3:31.28 | 47612 | 63464
5 | 14:06.15 | 3:11.47 | 63465 | 77836
6 | 17:17.62 | 4:26.50 | 77837 | 97836
7 | 21:44.37 | 3:41.05 | 97837 | 114416
8 | 25:25.42 | 4:04.43 | 114417 | 132759
9 | 29:30.10 | 3:46.02 | 132760 | 149711
10 | 33:16.12 | 3:39.60 | 149712 | 166196
11 | 36:55.72 | 5:42.40 | 166197 | 191886
12 | 42:38.37 | 0:03.73 | 191887 | 192184
13 | 42:42.35 | 0:04.02 | 192185 | 192486
14 | 42:46.37 | 0:04.03 | 192487 | 192789
15 | 42:50.40 | 0:04.02 | 192790 | 193091
16 | 42:54.42 | 0:04.03 | 193092 | 193394
17 | 42:58.45 | 0:04.02 | 193395 | 193696
18 | 43:02.47 | 0:04.03 | 193697 | 193999
19 | 43:06.50 | 0:04.00 | 194000 | 194299
20 | 43:10.50 | 0:04.05 | 194300 | 194604
21 | 43:14.55 | 0:04.05 | 194605 | 194909
22 | 43:18.60 | 0:04.05 | 194910 | 195214
23 | 43:22.65 | 0:52.45 | 195215 | 199159

Track 1

Filename C:\cuntfist\FLAC\Econoline Crush - The Devil You Know (1997) [FLAC] {Restless, EMI Music}\01 - Surefire.wav

Pre-gap length 0:00:02.00

Peak level 97.9 %
Track quality 100.0 %
Test CRC C8BD6662
Copy CRC C8BD6662
Accurately ripped (confidence 17) [1978B729]
Copy OK

Track 2

Filename C:\cuntfist\FLAC\Econoline Crush - The Devil You Know (1997) [FLAC] {Restless, EMI Music}\02 - Sparkle And Shine.wav

Peak level 97.9 %
Track quality 100.0 %
Test CRC D48E9472
Copy CRC D48E9472
Accurately ripped (confidence 17) [719653F4]
Copy OK

Track 3

Filename C:\cuntfist\FLAC\Econoline Crush - The Devil You Know (1997) [FLAC] {Restless, EMI Music}\03 - Deeper.wav

Pre-gap length 0:00:00.97

Peak level 97.9 %
Track quality 100.0 %
Test CRC 5D59167E
Copy CRC 5D59167E
Accurately ripped (confidence 17) [A85FB1A8]
Copy OK

Track 4

Filename C:\cuntfist\FLAC\Econoline Crush - The Devil You Know (1997) [FLAC] {Restless, EMI Music}\04 - Hollowman.wav

Pre-gap length 0:00:00.69

Peak level 97.9 %
Track quality 100.0 %
Test CRC E319B1CE
Copy CRC E319B1CE
Accurately ripped (confidence 17) [ABF8381B]
Copy OK

Track 5

Filename C:\cuntfist\FLAC\Econoline Crush - The Devil You Know (1997) [FLAC] {Restless, EMI Music}\05 - Home.wav

Peak level 98.1 %
Track quality 100.0 %
Test CRC 306FC1BF
Copy CRC 306FC1BF
Accurately ripped (confidence 17) [F6C8183F]
Copy OK

Track 6

Filename C:\cuntfist\FLAC\Econoline Crush - The Devil You Know (1997) [FLAC] {Restless, EMI Music}\06 - The Devil You Know.wav

Peak level 97.7 %
Track quality 100.0 %
Test CRC D340C18E
Copy CRC D340C18E
Accurately ripped (confidence 16) [D20754C1]
Copy OK

Track 7

Filename C:\cuntfist\FLAC\Econoline Crush - The Devil You Know (1997) [FLAC] {Restless, EMI Music}\07 - All That You Are (X3).wav

Peak level 97.9 %
Track quality 100.0 %
Test CRC BA8D15A5
Copy CRC BA8D15A5
Accurately ripped (confidence 16) [8FE2FDC8]
Copy OK

Track 8

Filename C:\cuntfist\FLAC\Econoline Crush - The Devil You Know (1997) [FLAC] {Restless, EMI Music}\08 - Burnt.wav

Pre-gap length 0:00:00.93

Peak level 97.7 %
Track quality 100.0 %
Test CRC 54B68903
Copy CRC 54B68903
Accurately ripped (confidence 17) [FE07A12C]
Copy OK

Track 9

Filename C:\cuntfist\FLAC\Econoline Crush - The Devil You Know (1997) [FLAC] {Restless, EMI Music}\09 - Haven't Gone Away.wav

Pre-gap length 0:00:01.10

Peak level 97.9 %
Track quality 100.0 %
Test CRC DB0F19FF
Copy CRC DB0F19FF
Accurately ripped (confidence 17) [979AAD4F]
Copy OK

Track 10

Filename C:\cuntfist\FLAC\Econoline Crush - The Devil You Know (1997) [FLAC] {Restless, EMI Music}\10 - Elegant.wav

Pre-gap length 0:00:01.20

Peak level 97.9 %
Track quality 99.9 %
Test CRC ECD52C1E
Copy CRC ECD52C1E
Accurately ripped (confidence 17) [B6319545]
Copy OK

Track 11

Filename C:\cuntfist\FLAC\Econoline Crush - The Devil You Know (1997) [FLAC] {Restless, EMI Music}\11 - Razorblades And Bandaides.wav

Pre-gap length 0:00:01.42

Peak level 97.9 %
Track quality 100.0 %
Test CRC DBC474E3
Copy CRC DBC474E3
Accurately ripped (confidence 17) [861E2AE3]
Copy OK

Track 12

Filename C:\cuntfist\FLAC\Econoline Crush - The Devil You Know (1997) [FLAC] {Restless, EMI Music}\12 - (silence).wav

Peak level 0.0 %
Track quality 100.0 %
Test CRC 65774603
Copy CRC 65774603
Track not present in AccurateRip database
Copy OK

Track 13

Filename C:\cuntfist\FLAC\Econoline Crush - The Devil You Know (1997) [FLAC] {Restless, EMI Music}\13 - (silence).wav

Peak level 0.0 %
Track quality 100.0 %
Test CRC D95AFAF1
Copy CRC D95AFAF1
Track not present in AccurateRip database
Copy OK

Track 14

Filename C:\cuntfist\FLAC\Econoline Crush - The Devil You Know (1997) [FLAC] {Restless, EMI Music}\14 - (silence).wav

Peak level 0.0 %
Track quality 100.0 %
Test CRC 6E375D99
Copy CRC 6E375D99
Track not present in AccurateRip database
Copy OK

Track 15

Filename C:\cuntfist\FLAC\Econoline Crush - The Devil You Know (1997) [FLAC] {Restless, EMI Music}\15 - (silence).wav

Peak level 0.0 %
Track quality 100.0 %
Test CRC D95AFAF1
Copy CRC D95AFAF1
Track not present in AccurateRip database
Copy OK

Track 16

Filename C:\cuntfist\FLAC\Econoline Crush - The Devil You Know (1997) [FLAC] {Restless, EMI Music}\16 - (silence).wav

Peak level 0.0 %
Track quality 100.0 %
Test CRC 6E375D99
Copy CRC 6E375D99
Track not present in AccurateRip database
Copy OK

Track 17

Filename C:\cuntfist\FLAC\Econoline Crush - The Devil You Know (1997) [FLAC] {Restless, EMI Music}\17 - (silence).wav

Peak level 0.0 %
Track quality 100.0 %
Test CRC D95AFAF1
Copy CRC D95AFAF1
Track not present in AccurateRip database
Copy OK

Track 18

Filename C:\cuntfist\FLAC\Econoline Crush - The Devil You Know (1997) [FLAC] {Restless, EMI Music}\18 - (silence).wav

Peak level 0.0 %
Track quality 100.0 %
Test CRC 6E375D99
Copy CRC 6E375D99
Track not present in AccurateRip database
Copy OK

Track 19

Filename C:\cuntfist\FLAC\Econoline Crush - The Devil You Know (1997) [FLAC] {Restless, EMI Music}\19 - (silence).wav

Peak level 0.0 %
Track quality 97.2 %
Test CRC 02864C0E
Copy CRC 02864C0E
Track not present in AccurateRip database
Copy OK

Track 20

Filename C:\cuntfist\FLAC\Econoline Crush - The Devil You Know (1997) [FLAC] {Restless, EMI Music}\20 - (silence).wav

Peak level 0.0 %
Track quality 100.0 %
Test CRC 06169450
Copy CRC 06169450
Track not present in AccurateRip database
Copy OK

Track 21

Filename C:\cuntfist\FLAC\Econoline Crush - The Devil You Know (1997) [FLAC] {Restless, EMI Music}\21 - (silence).wav

Peak level 0.0 %
Track quality 100.0 %
Test CRC 06169450
Copy CRC 06169450
Track not present in AccurateRip database
Copy OK

Track 22

Filename C:\cuntfist\FLAC\Econoline Crush - The Devil You Know (1997) [FLAC] {Restless, EMI Music}\22 - (silence).wav

Peak level 0.0 %
Track quality 100.0 %
Test CRC 06169450
Copy CRC 06169450
Track not present in AccurateRip database
Copy OK

Track 23

Filename C:\cuntfist\FLAC\Econoline Crush - The Devil You Know (1997) [FLAC] {Restless, EMI Music}\23 - Untitled (1 Corinthians 13-4-8) (Hidden Track).wav

Peak level 54.1 %
Track quality 100.0 %
Test CRC 39B6280C
Copy CRC 39B6280C
Accurately ripped (confidence 11) [1B72074D]
Copy OK

12 track(s) accurately ripped
11 track(s) not present in the AccurateRip database

Some tracks could not be verified as accurate

No errors occurred

End of status report


Econoline Crush - The Devil You Know (1997) [FLAC] {Restless/EMI Music}


Thank you to the original uploader.