Subcategories

Eric Clapton - Legendary Masters (2001) {Lighthouse/EMI}

Posted By: TestTickles
Eric Clapton - Legendary Masters (2001) {Lighthouse/EMI}

Eric Clapton - Legendary Masters (2001) {Lighthouse/EMI}
EAC Rip | FLAC with CUE and LOG | scans | 526 mb
MP3 CBR 320 kbps | RAR | 180 mb
Genre: rock, blues rock, classic rock

Legendary Masters is a 2001 compilation CD by British guitarist Eric Clapton. This was released by Lighthouse/EMI.

Eric Clapton - Legendary Masters (2001) {Lighthouse/EMI}

01. Before You Accuse Me (Take A Look At Yourself)
02. Superman Inside
03. My Father's Eyes
04. Reptile
05. Wonderful Tonight
06. Travelin' Light
07. Blue Eyes Blue
08. Riding With The King
09. Come Back Baby
10. Tears In Heaven
11. Layla (Unplugged)
12. Change The World
13. All Your Love
14. Running On Faith
15. Cocaine
16. Let It Rain
17. Cream - Sunshine Of Your Love
18. Tearing Us Apart (Live)

Track 8 featuring B.B. King
Track 18 featuring Tina Turner

Exact Audio Copy V0.99 prebeta 4 from 23. January 2008

Отчёт EAC об извлечении, выполненном 9. сентябрь 2009, 7:26

Eric Clapton / Legendary Masters

Дисковод: TSSTcorpCDDVDW SH-S203D Adapter: 0 ID: 1

Режим чтения : Достоверность
Использование точного потока : Да
Отключение кэша аудио : Да
Использование указателей C2 : Нет

Коррекция смещения при чтении : 6
Способность читать области Lead-in и Lead-out : Нет
Заполнение пропущенных сэмплов тишиной : Да
Удаление блоков с тишиной в начале и конце : Нет
При вычислениях CRC использовались нулевые сэмплы : Да
Интерфейс :
Встроенный Win32-интерфейс для Win NT/2000
Выходной формат : Внутренние WAV-операции
Формат сэмплов : 44.100 Гц; 16 бит; стерео

TOC извлечённого CD

Трек | Старт | Длительность | Начальный сектор | Конечный сектор
––––––––––––––––––––––––––––––––––-
1 | 0:00.00 | 3:57.10 | 0 | 17784
2 | 3:57.10 | 5:03.37 | 17785 | 40546
3 | 9:00.47 | 5:24.12 | 40547 | 64858
4 | 14:24.59 | 3:25.48 | 64859 | 80281
5 | 17:50.32 | 3:39.00 | 80282 | 96706
6 | 21:29.32 | 4:12.64 | 96707 | 115670
7 | 25:42.21 | 4:42.51 | 115671 | 136871
8 | 30:24.72 | 4:23.34 | 136872 | 156630
9 | 34:48.31 | 3:53.30 | 156631 | 174135
10 | 38:41.61 | 4:33.07 | 174136 | 194617
11 | 43:14.68 | 4:40.00 | 194618 | 215617
12 | 47:54.68 | 3:55.28 | 215618 | 233270
13 | 51:50.21 | 3:33.37 | 233271 | 249282
14 | 55:23.58 | 5:32.37 | 249283 | 274219
15 | 60:56.20 | 3:33.00 | 274220 | 290194
16 | 64:29.20 | 5:01.63 | 290195 | 312832
17 | 69:31.08 | 4:10.00 | 312833 | 331582
18 | 73:41.08 | 4:39.67 | 331583 | 352574

Характеристики диапазона извлечения и сообщения об ошибках

Выбранный диапазон

Имя файла C:\cuntfist\FLAC\Eric Clapton - Legendary Masters (2001) [FLAC] {Lighthouse, EMI}\Eric Clapton - Legendary Masters.wav

Пиковый уровень 100.0 %
Качество диапазона 99.9 %
CRC копии B9005557
Копирование… OK

Ошибок не произошло

Конец отчёта


Eric Clapton - Legendary Masters (2001) {Lighthouse/EMI}


Thank you to the original uploader.