Tags
Language
Tags
March 2024
Su Mo Tu We Th Fr Sa
25 26 27 28 29 1 2
3 4 5 6 7 8 9
10 11 12 13 14 15 16
17 18 19 20 21 22 23
24 25 26 27 28 29 30
31 1 2 3 4 5 6
Attention❗ To save your time, in order to download anything on this site, you must be registered 👉 HERE. If you do not have a registration yet, it is better to do it right away. ✌

( • )( • ) ( ͡⚆ ͜ʖ ͡⚆ ) (‿ˠ‿)
SpicyMags.xyz

Academy Of St. Martin-In-The-Fields, Neville Marriner - Mozart: Requiem etc. (2CD) (1994) {London} **[RE-UP]**

Posted By: TestTickles
Academy Of St. Martin-In-The-Fields, Neville Marriner - Mozart: Requiem etc. (2CD) (1994) {London} **[RE-UP]**

Academy Of St. Martin-In-The-Fields, Neville Marriner - Mozart: Requiem, Krönungsmesse / Coronation Mass, Exsultate, Jubilate Litany K195 (2CD) (1994) {London}
EAC Rip | FLAC with CUE and log | scans | 558 mb
MP3 CBR 320kbps | RAR | 282 mb
Genre: classical

The Academy Of St. Martin-In-The-Fields, conducted by Neville Marriner, offer Mozart: Requiem, Krönungsmesse / Coronation Mass, Exsultate, Jubilate Litany K195. This was released by London Records in 1994 and is a reissue/remaster of works released in 1967, 1972, and 1977.

Academy Of St. Martin-In-The-Fields, Neville Marriner - Mozart: Requiem etc. (2CD) (1994) {London} **[RE-UP]**

DISC 1
01. Exsultate, jubilate [K165] - 1 Exsultate, jubilate
02. Exsultate, jubilate [K165] - 2 Fulget amica dies
03. Exsultate, jubilate [K165] - 3 Tu virginum corona
04. Exsultate, jubilate [K165] - 4 Alleluja
05. Krönungsmesse [K317] - 1 Kyrie
06. Krönungsmesse [K317] - 2 Gloria
07. Krönungsmesse [K317] - 3 Credo
08. Krönungsmesse [K317] - 4 Sanctus
09. Krönungsmesse [K317] - 5 Benedictus
10. Krönungsmesse [K317] - 6 Agnus Dei
11. Litaniae Lauretanae [K195] - 1 Kyrie
12. Litaniae Lauretanae [K195] - 2 Sancta Maria
13. Litaniae Lauretanae [K195] - 3 Salus infirmorum
14. Litaniae Lauretanae [K195] - 4 Regina angelorum
15. Litaniae Lauretanae [K195] - 5 Agnus Dei

DISC 2
01. Requiem in D Minor, KV.626: I. Introitus.Requiem
02. Requiem in D Minor, KV.626: II. Kyrie
03. Requiem in D Minor, KV.626: III. Dies Irae
04. Requiem in D Minor, KV.626: IV. Tuba Mirum
05. Requiem in D Minor, KV.626: V. Rex Tremendae
06. Requiem in D Minor, KV.626: VI. Recordare
07. Requiem in D Minor, KV.626: VII. Confutatis
08. Requiem in D Minor, KV.626: VIII. Lacrimosa
09. Requiem in D Minor, KV.626: IX. Domine Jesu
10. Requiem in D Minor, KV.626: X. Hostias
11. Requiem in D Minor, KV.626: XI. Sanctus
12. Requiem in D Minor, KV.626: XII. Benedictus
13. Requiem in D Minor, KV.626:XIII. Agnus Dei
14. Requiem in D Minor, KV.626: XIV. Lux Aeterna


DISC 1
Ileana Cotrubas-soprano
Helen Watts-contralto
Robert Tear-tenor
John Shirley-Quirk-bass baritone
Erna Spoorenberg-soprano (tracks 1-4)

Schola Cantorum Of Oxford; chorus master: Andrew Parrott
Philip Ledger-organ (tracks 1-4)
George Malcolm-organ
Academy And Chorus Of St. Martin-In-The-Fields; chorus master: Laszlo Heltay

Neville Marriner: conductor

DISC 2:
Ileana Cotrubas-soprano
Helen Watts-contralto
Robert Tear-tenor
John Shirley-Quirk-bass bariton
Academy And Chorus Of St. Martin-In-The-Fields; chorus master: Laszlo Heltay

Neville Marriner: conductor

Disc 1 produced by Michael Bremner
Disc 2 produced by Chris Hazell

Exact Audio Copy V1.1 from 23. June 2015

EAC extraction logfile from 3. January 2017, 9:42

Academy Of St. Martin-In-The-Fields, Neville Marriner / Mozart: Requiem etc. (Disc 1)

Used drive : TEAC DVD-ROM DV-28SW Adapter: 1 ID: 0

Read mode : Secure
Utilize accurate stream : Yes
Defeat audio cache : Yes
Make use of C2 pointers : No

Read offset correction : 6
Overread into Lead-In and Lead-Out : No
Fill up missing offset samples with silence : Yes
Delete leading and trailing silent blocks : No
Null samples used in CRC calculations : Yes
Used interface : Native Win32 interface for Win NT & 2000
Gap handling : Appended to previous track

Used output format : Internal WAV Routines
Sample format : 44.100 Hz; 16 Bit; Stereo


TOC of the extracted CD

Track | Start | Length | Start sector | End sector
––––––––––––––––––––––––––––-
1 | 0:00.32 | 4:38.25 | 32 | 20906
2 | 4:38.57 | 0:58.30 | 20907 | 25286
3 | 5:37.12 | 7:06.33 | 25287 | 57269
4 | 12:43.45 | 2:38.00 | 57270 | 69119
5 | 15:21.45 | 2:52.25 | 69120 | 82044
6 | 18:13.70 | 4:22.00 | 82045 | 101694
7 | 22:35.70 | 6:38.00 | 101695 | 131544
8 | 29:13.70 | 1:55.37 | 131545 | 140206
9 | 31:09.32 | 3:59.25 | 140207 | 158156
10 | 35:08.57 | 6:21.13 | 158157 | 186744
11 | 41:29.70 | 6:12.12 | 186745 | 214656
12 | 47:42.07 | 8:41.63 | 214657 | 253794
13 | 56:23.70 | 3:31.45 | 253795 | 269664
14 | 59:55.40 | 5:33.17 | 269665 | 294656
15 | 65:28.57 | 6:02.13 | 294657 | 321819


Track 1

Filename C:\My Documents\My FLAC\Academy Of St. Martin-In-The-Fields, Neville Marriner - Mozart, Requiem etc. (2CD) (1994) [FLAC] {London}\Disc 1\01 - Exsultate, jubilate [K165] - 1 Exsultate, jubilate.wav

Pre-gap length 0:00:02.32

Peak level 71.6 %
Extraction speed 2.8 X
Track quality 100.0 %
Test CRC 6770D0E5
Copy CRC 6770D0E5
Accurately ripped (confidence 8) [14D25270] (AR v2)
Copy OK

Track 2

Filename C:\My Documents\My FLAC\Academy Of St. Martin-In-The-Fields, Neville Marriner - Mozart, Requiem etc. (2CD) (1994) [FLAC] {London}\Disc 1\02 - Exsultate, jubilate [K165] - 2 Fulget amica dies.wav

Peak level 46.4 %
Extraction speed 1.3 X
Track quality 99.8 %
Test CRC 3689F533
Copy CRC 3689F533
Accurately ripped (confidence 8) [A519873E] (AR v2)
Copy OK

Track 3

Filename C:\My Documents\My FLAC\Academy Of St. Martin-In-The-Fields, Neville Marriner - Mozart, Requiem etc. (2CD) (1994) [FLAC] {London}\Disc 1\03 - Exsultate, jubilate [K165] - 3 Tu virginum corona.wav

Peak level 64.1 %
Extraction speed 3.2 X
Track quality 100.0 %
Test CRC 0C5B9CAE
Copy CRC 0C5B9CAE
Accurately ripped (confidence 8) [E082E622] (AR v2)
Copy OK

Track 4

Filename C:\My Documents\My FLAC\Academy Of St. Martin-In-The-Fields, Neville Marriner - Mozart, Requiem etc. (2CD) (1994) [FLAC] {London}\Disc 1\04 - Exsultate, jubilate [K165] - 4 Alleluja.wav

Peak level 73.9 %
Extraction speed 2.4 X
Track quality 99.9 %
Test CRC F696FE12
Copy CRC F696FE12
Accurately ripped (confidence 8) [13AF08D6] (AR v2)
Copy OK

Track 5

Filename C:\My Documents\My FLAC\Academy Of St. Martin-In-The-Fields, Neville Marriner - Mozart, Requiem etc. (2CD) (1994) [FLAC] {London}\Disc 1\05 - Krönungsmesse [K317] - 1 Kyrie.wav

Pre-gap length 0:00:07.50

Peak level 72.7 %
Extraction speed 2.6 X
Track quality 99.9 %
Test CRC F0918E90
Copy CRC F0918E90
Accurately ripped (confidence 8) [7B61A7CE] (AR v2)
Copy OK

Track 6

Filename C:\My Documents\My FLAC\Academy Of St. Martin-In-The-Fields, Neville Marriner - Mozart, Requiem etc. (2CD) (1994) [FLAC] {London}\Disc 1\06 - Krönungsmesse [K317] - 2 Gloria.wav

Peak level 76.2 %
Extraction speed 3.7 X
Track quality 100.0 %
Test CRC 8CE4996F
Copy CRC 8CE4996F
Accurately ripped (confidence 8) [C7E609F6] (AR v2)
Copy OK

Track 7

Filename C:\My Documents\My FLAC\Academy Of St. Martin-In-The-Fields, Neville Marriner - Mozart, Requiem etc. (2CD) (1994) [FLAC] {London}\Disc 1\07 - Krönungsmesse [K317] - 3 Credo.wav

Peak level 80.1 %
Extraction speed 4.1 X
Track quality 100.0 %
Test CRC 55DF6CE9
Copy CRC 55DF6CE9
Accurately ripped (confidence 8) [7F0B19C1] (AR v2)
Copy OK

Track 8

Filename C:\My Documents\My FLAC\Academy Of St. Martin-In-The-Fields, Neville Marriner - Mozart, Requiem etc. (2CD) (1994) [FLAC] {London}\Disc 1\08 - Krönungsmesse [K317] - 4 Sanctus.wav

Peak level 74.8 %
Extraction speed 2.7 X
Track quality 99.9 %
Test CRC 6639C8D6
Copy CRC 6639C8D6
Accurately ripped (confidence 8) [B8F769B8] (AR v2)
Copy OK

Track 9

Filename C:\My Documents\My FLAC\Academy Of St. Martin-In-The-Fields, Neville Marriner - Mozart, Requiem etc. (2CD) (1994) [FLAC] {London}\Disc 1\09 - Krönungsmesse [K317] - 5 Benedictus.wav

Peak level 76.0 %
Extraction speed 3.8 X
Track quality 100.0 %
Test CRC 338EE3F2
Copy CRC 338EE3F2
Accurately ripped (confidence 8) [D40C317D] (AR v2)
Copy OK

Track 10

Filename C:\My Documents\My FLAC\Academy Of St. Martin-In-The-Fields, Neville Marriner - Mozart, Requiem etc. (2CD) (1994) [FLAC] {London}\Disc 1\10 - Krönungsmesse [K317] - 6 Agnus Dei.wav

Peak level 76.9 %
Extraction speed 3.4 X
Track quality 100.0 %
Test CRC 77178D4F
Copy CRC 77178D4F
Accurately ripped (confidence 8) [E06C3736] (AR v2)
Copy OK

Track 11

Filename C:\My Documents\My FLAC\Academy Of St. Martin-In-The-Fields, Neville Marriner - Mozart, Requiem etc. (2CD) (1994) [FLAC] {London}\Disc 1\11 - Litaniae Lauretanae [K195] - 1 Kyrie.wav

Pre-gap length 0:00:07.00

Peak level 74.4 %
Extraction speed 4.4 X
Track quality 99.9 %
Test CRC F12985E0
Copy CRC F12985E0
Accurately ripped (confidence 8) [2AD92861] (AR v2)
Copy OK

Track 12

Filename C:\My Documents\My FLAC\Academy Of St. Martin-In-The-Fields, Neville Marriner - Mozart, Requiem etc. (2CD) (1994) [FLAC] {London}\Disc 1\12 - Litaniae Lauretanae [K195] - 2 Sancta Maria.wav

Pre-gap length 0:00:01.37

Peak level 67.8 %
Extraction speed 5.5 X
Track quality 100.0 %
Test CRC 491CAB1A
Copy CRC 491CAB1A
Accurately ripped (confidence 8) [9406E4C3] (AR v2)
Copy OK

Track 13

Filename C:\My Documents\My FLAC\Academy Of St. Martin-In-The-Fields, Neville Marriner - Mozart, Requiem etc. (2CD) (1994) [FLAC] {London}\Disc 1\13 - Litaniae Lauretanae [K195] - 3 Salus infirmorum.wav

Peak level 73.4 %
Extraction speed 5.1 X
Track quality 100.0 %
Test CRC 211093AD
Copy CRC 211093AD
Accurately ripped (confidence 8) [BD11AB56] (AR v2)
Copy OK

Track 14

Filename C:\My Documents\My FLAC\Academy Of St. Martin-In-The-Fields, Neville Marriner - Mozart, Requiem etc. (2CD) (1994) [FLAC] {London}\Disc 1\14 - Litaniae Lauretanae [K195] - 4 Regina angelorum.wav

Peak level 75.7 %
Extraction speed 5.6 X
Track quality 100.0 %
Test CRC BD728EDF
Copy CRC BD728EDF
Accurately ripped (confidence 8) [88AF4959] (AR v2)
Copy OK

Track 15

Filename C:\My Documents\My FLAC\Academy Of St. Martin-In-The-Fields, Neville Marriner - Mozart, Requiem etc. (2CD) (1994) [FLAC] {London}\Disc 1\15 - Litaniae Lauretanae [K195] - 5 Agnus Dei.wav

Peak level 68.6 %
Extraction speed 5.8 X
Track quality 100.0 %
Test CRC E9AC5CB8
Copy CRC E9AC5CB8
Accurately ripped (confidence 8) [5BE86C72] (AR v2)
Copy OK


All tracks accurately ripped

No errors occurred

End of status report

–– CUETools DB Plugin V2.1.6

[CTDB TOCID: TKUs.HA1CQF4kEnUHqb.RcmVqbw-] found
Submit result: TKUs.HA1CQF4kEnUHqb.RcmVqbw- has been confirmed
Track | CTDB Status
1 | ( 1/15) Accurately ripped, or (13/15) differs in 6 samples @01:11:36,03:19:58
2 | (15/15) Accurately ripped
3 | (15/15) Accurately ripped
4 | (15/15) Accurately ripped
5 | (15/15) Accurately ripped
6 | (15/15) Accurately ripped
7 | ( 1/15) Accurately ripped, or (13/15) differs in 6 samples @05:35:70
8 | (15/15) Accurately ripped
9 | ( 1/15) Accurately ripped, or (13/15) differs in 3 samples @03:40:72
10 | (15/15) Accurately ripped
11 | (15/15) Accurately ripped
12 | ( 1/15) Accurately ripped, or (13/15) differs in 3 samples @01:57:53
13 | (15/15) Accurately ripped
14 | (14/15) Accurately ripped
15 | ( 1/15) Accurately ripped, or (13/15) differs in 3 samples @05:25:07
If you are sure that your rip contains errors, you can use CUETools to repair it.


==== Log checksum C5BB047FE5DC17CC1985360243D38D998525BE6240FFFEE785926F85D0A2B45D ====







Exact Audio Copy V1.1 from 23. June 2015

EAC extraction logfile from 3. January 2017, 10:37

Academy Of St. Martin-In-The-Fields, Neville Marriner / Mozart: Requiem etc. (Disc 2)

Used drive : TEAC DVD-ROM DV-28SW Adapter: 1 ID: 0

Read mode : Secure
Utilize accurate stream : Yes
Defeat audio cache : Yes
Make use of C2 pointers : No

Read offset correction : 6
Overread into Lead-In and Lead-Out : No
Fill up missing offset samples with silence : Yes
Delete leading and trailing silent blocks : No
Null samples used in CRC calculations : Yes
Used interface : Native Win32 interface for Win NT & 2000
Gap handling : Appended to previous track

Used output format : Internal WAV Routines
Sample format : 44.100 Hz; 16 Bit; Stereo


TOC of the extracted CD

Track | Start | Length | Start sector | End sector
––––––––––––––––––––––––––––-
1 | 0:00.33 | 5:28.15 | 33 | 24647
2 | 5:28.48 | 2:52.20 | 24648 | 37567
3 | 8:20.68 | 1:54.40 | 37568 | 46157
4 | 10:15.33 | 3:40.37 | 46158 | 62694
5 | 13:55.70 | 2:18.23 | 62695 | 73067
6 | 16:14.18 | 6:13.07 | 73068 | 101049
7 | 22:27.25 | 2:32.30 | 101050 | 112479
8 | 24:59.55 | 4:11.20 | 112480 | 131324
9 | 29:11.00 | 3:55.08 | 131325 | 148957
10 | 33:06.08 | 4:29.62 | 148958 | 169194
11 | 37:35.70 | 1:26.68 | 169195 | 175712
12 | 39:02.63 | 5:58.37 | 175713 | 202599
13 | 45:01.25 | 3:41.55 | 202600 | 219229
14 | 48:43.05 | 6:08.63 | 219230 | 246892


Track 1

Filename C:\My Documents\My FLAC\Academy Of St. Martin-In-The-Fields, Neville Marriner - Mozart, Requiem etc. (2CD) (1994) [FLAC] {London}\Disc 2\01 - Requiem in D Minor, KV.626, I.Introitus.Requiem.wav

Pre-gap length 0:00:02.33

Peak level 100.0 %
Extraction speed 3.0 X
Track quality 100.0 %
Test CRC 948AE3D6
Copy CRC 948AE3D6
Accurately ripped (confidence 10) [98F248F4] (AR v2)
Copy OK

Track 2

Filename C:\My Documents\My FLAC\Academy Of St. Martin-In-The-Fields, Neville Marriner - Mozart, Requiem etc. (2CD) (1994) [FLAC] {London}\Disc 2\02 - Requiem in D Minor, KV.626, II.Kyrie.wav

Peak level 88.7 %
Extraction speed 3.0 X
Track quality 100.0 %
Test CRC FD13B0A6
Copy CRC FD13B0A6
Accurately ripped (confidence 10) [B4D44762] (AR v2)
Copy OK

Track 3

Filename C:\My Documents\My FLAC\Academy Of St. Martin-In-The-Fields, Neville Marriner - Mozart, Requiem etc. (2CD) (1994) [FLAC] {London}\Disc 2\03 - Requiem in D Minor, KV.626, III.Dies Irae.wav

Peak level 93.1 %
Extraction speed 2.1 X
Track quality 99.9 %
Test CRC 481C7066
Copy CRC 481C7066
Accurately ripped (confidence 9) [D275A1B5] (AR v2)
Copy OK

Track 4

Filename C:\My Documents\My FLAC\Academy Of St. Martin-In-The-Fields, Neville Marriner - Mozart, Requiem etc. (2CD) (1994) [FLAC] {London}\Disc 2\04 - Requiem in D Minor, KV.626, IV.Tuba Mirum.wav

Pre-gap length 0:00:01.28

Peak level 56.3 %
Extraction speed 3.5 X
Track quality 100.0 %
Test CRC B69E712D
Copy CRC B69E712D
Accurately ripped (confidence 10) [4AE9A65B] (AR v2)
Copy OK

Track 5

Filename C:\My Documents\My FLAC\Academy Of St. Martin-In-The-Fields, Neville Marriner - Mozart, Requiem etc. (2CD) (1994) [FLAC] {London}\Disc 2\05 - Requiem in D Minor, KV.626, V.Rex Tremendae.wav

Pre-gap length 0:00:00.35

Peak level 100.0 %
Extraction speed 3.4 X
Track quality 100.0 %
Test CRC 9E53BA66
Copy CRC 9E53BA66
Accurately ripped (confidence 10) [D85FE1A0] (AR v2)
Copy OK

Track 6

Filename C:\My Documents\My FLAC\Academy Of St. Martin-In-The-Fields, Neville Marriner - Mozart, Requiem etc. (2CD) (1994) [FLAC] {London}\Disc 2\06 - Requiem in D Minor, KV.626, VI.Recordare.wav

Pre-gap length 0:00:00.65

Peak level 60.7 %
Extraction speed 4.1 X
Track quality 100.0 %
Test CRC C023FFED
Copy CRC C023FFED
Accurately ripped (confidence 10) [EC24802D] (AR v2)
Copy OK

Track 7

Filename C:\My Documents\My FLAC\Academy Of St. Martin-In-The-Fields, Neville Marriner - Mozart, Requiem etc. (2CD) (1994) [FLAC] {London}\Disc 2\07 - Requiem in D Minor, KV.626, VII.Confutatis.wav

Peak level 47.4 %
Extraction speed 3.0 X
Track quality 99.9 %
Test CRC 49778ED5
Copy CRC 49778ED5
Accurately ripped (confidence 10) [F0B37F5F] (AR v2)
Copy OK

Track 8

Filename C:\My Documents\My FLAC\Academy Of St. Martin-In-The-Fields, Neville Marriner - Mozart, Requiem etc. (2CD) (1994) [FLAC] {London}\Disc 2\08 - Requiem in D Minor, KV.626, VIII.Lacrimosa.wav

Peak level 82.5 %
Extraction speed 4.4 X
Track quality 100.0 %
Test CRC B24AD58E
Copy CRC B24AD58E
Accurately ripped (confidence 10) [3C662908] (AR v2)
Copy OK

Track 9

Filename C:\My Documents\My FLAC\Academy Of St. Martin-In-The-Fields, Neville Marriner - Mozart, Requiem etc. (2CD) (1994) [FLAC] {London}\Disc 2\09 - Requiem in D Minor, KV.626, IX.Domine Jesu.wav

Pre-gap length 0:00:00.22

Peak level 100.0 %
Extraction speed 4.5 X
Track quality 100.0 %
Test CRC B1A09D02
Copy CRC B1A09D02
Accurately ripped (confidence 10) [DE7CFD76] (AR v2)
Copy OK

Track 10

Filename C:\My Documents\My FLAC\Academy Of St. Martin-In-The-Fields, Neville Marriner - Mozart, Requiem etc. (2CD) (1994) [FLAC] {London}\Disc 2\10 - Requiem in D Minor, KV.626, X.Hostias.wav

Peak level 100.0 %
Extraction speed 4.8 X
Track quality 100.0 %
Test CRC 20D1093E
Copy CRC 20D1093E
Accurately ripped (confidence 10) [66775F67] (AR v2)
Copy OK

Track 11

Filename C:\My Documents\My FLAC\Academy Of St. Martin-In-The-Fields, Neville Marriner - Mozart, Requiem etc. (2CD) (1994) [FLAC] {London}\Disc 2\11 - Requiem in D Minor, KV.626, XI.Sanctus.wav

Pre-gap length 0:00:01.15

Peak level 92.0 %
Extraction speed 3.9 X
Track quality 100.0 %
Test CRC 52077F51
Copy CRC 52077F51
Accurately ripped (confidence 10) [F9D3E613] (AR v2)
Copy OK

Track 12

Filename C:\My Documents\My FLAC\Academy Of St. Martin-In-The-Fields, Neville Marriner - Mozart, Requiem etc. (2CD) (1994) [FLAC] {London}\Disc 2\12 - Requiem in D Minor, KV.626, XII.Benedictus.wav

Peak level 80.4 %
Extraction speed 5.3 X
Track quality 100.0 %
Test CRC 20D29202
Copy CRC 20D29202
Accurately ripped (confidence 10) [ECEF0404] (AR v2)
Copy OK

Track 13

Filename C:\My Documents\My FLAC\Academy Of St. Martin-In-The-Fields, Neville Marriner - Mozart, Requiem etc. (2CD) (1994) [FLAC] {London}\Disc 2\13 - Requiem in D Minor, KV.626, XIII.Agnus Dei.wav

Pre-gap length 0:00:01.15

Peak level 87.2 %
Extraction speed 3.9 X
Track quality 99.9 %
Test CRC 46B5C50A
Copy CRC 46B5C50A
Accurately ripped (confidence 10) [5DB3AE9A] (AR v2)
Copy OK

Track 14

Filename C:\My Documents\My FLAC\Academy Of St. Martin-In-The-Fields, Neville Marriner - Mozart, Requiem etc. (2CD) (1994) [FLAC] {London}\Disc 2\14 - Requiem in D Minor, KV.626, XIV.Lux Aeterna.wav

Peak level 88.9 %
Extraction speed 3.6 X
Track quality 99.9 %
Test CRC 5BC63722
Copy CRC 5BC63722
Accurately ripped (confidence 9) [837874D7] (AR v2)
Copy OK


All tracks accurately ripped

No errors occurred

End of status report

–– CUETools DB Plugin V2.1.6

[CTDB TOCID: _tg6EzBVm56cJ_ycgJSVcT9qn18-] found
Submit result: _tg6EzBVm56cJ_ycgJSVcT9qn18- has been confirmed
Track | CTDB Status
1 | (2/3) Accurately ripped
2 | (2/3) Accurately ripped
3 | (2/3) Accurately ripped
4 | (2/3) Accurately ripped
5 | (2/3) Accurately ripped
6 | (2/3) Accurately ripped
7 | (2/3) Accurately ripped
8 | (2/3) Accurately ripped
9 | (2/3) Accurately ripped
10 | (2/3) Accurately ripped
11 | (2/3) Accurately ripped
12 | (2/3) Accurately ripped
13 | (2/3) Accurately ripped
14 | (2/3) Accurately ripped


==== Log checksum B61E72B3E720A7A77AA195326B96ADF4FEFBB353B8ACC8C8C0FAA3231BE25A03 ====


Academy Of St. Martin-In-The-Fields, Neville Marriner - Mozart: Requiem etc. (2CD) (1994) {London} **[RE-UP]**