Subcategories

Al Green - Greatest Hits (1975) {1998 DCC}

Posted By: TestTickles
Al Green - Greatest Hits (1975) {1998 DCC}

Al Green - Greatest Hits (1975) {1998 DCC}
EAC Rip | FLAC with CUE and log | scans | 316 mb
MP3 CBR 320kbps | RAR | 135 mb
Genre: R&B, soul

This is the very succcessful Greatest Hits album by American soul vocalist Al Green. Originally released on Hi Records in 1975, this was released by DCC and is remastered by Steve Hoffman.

Al Green - Greatest Hits (1975) {1998 DCC}

01. Tired Of Being Alone
02. Call Me (Come Back Home)
03. I'm Still In Love With You
04. Here I Am (Come And Take Me)
05. Love And Happiness
06. Let's Stay Together
07. I Can't Get Next To You
08. You Ought To Be With Me
09. Look What You Done For Me
10. Let's Get Married
11. Livin' For You (Bonus Track)
12. Sha La La (Make Me Happy) (Bonus Track)
13. L-O-V-E (Love) (Bonus Track)
14. Full Of Fire (Bonus Track)
15. Belle (Bonus Track)

Produced by Willie Mitchell & Al Green
Engineered & remix engineer: Willie Mitchell
Remastered by Steve Hoffman

Exact Audio Copy V0.99 prebeta 4 from 23. January 2008

EAC extraction logfile from 16. June 2008, 19:25

Al Green / Greatest Hits {1998 DCC}

Used drive : HL-DT-STCD-RW GCE-8481B Adapter: 1 ID: 1

Read mode : Secure
Utilize accurate stream : Yes
Defeat audio cache : Yes
Make use of C2 pointers : No

Read offset correction : 6
Overread into Lead-In and Lead-Out : Yes
Fill up missing offset samples with silence : Yes
Delete leading and trailing silent blocks : No
Null samples used in CRC calculations : Yes
Used interface : Installed external ASPI interface
Gap handling : Appended to previous track

Used output format : User Defined Encoder
Selected bitrate : 320 kBit/s
Quality : High
Add ID3 tag : Yes
Command line compressor : C:\Program Files\Exact Audio Copy 0.99 pb4\Flac\flac.exe
Additional command line options : -q8 -T "artist=%a" -T "title=%t" -T "album=%g" -T "date=%y" -T "tracknumber=%n" -T "genre=%m" -T "comment=EAC (Secure)" %s


TOC of the extracted CD

Track | Start | Length | Start sector | End sector
––––––––––––––––––––––––––––-
1 | 0:00.00 | 2:58.42 | 0 | 13391
2 | 2:58.42 | 3:11.20 | 13392 | 27736
3 | 6:09.62 | 3:20.00 | 27737 | 42736
4 | 9:29.62 | 4:20.28 | 42737 | 62264
5 | 13:50.15 | 5:08.10 | 62265 | 85374
6 | 18:58.25 | 4:56.57 | 85375 | 107631
7 | 23:55.07 | 3:56.33 | 107632 | 125364
8 | 27:51.40 | 3:25.72 | 125365 | 140811
9 | 31:17.37 | 3:12.30 | 140812 | 155241
10 | 34:29.67 | 4:32.50 | 155242 | 175691
11 | 39:02.42 | 3:17.67 | 175692 | 190533
12 | 42:20.34 | 3:06.08 | 190534 | 204491
13 | 45:26.42 | 3:14.73 | 204492 | 219114
14 | 48:41.40 | 5:20.37 | 219115 | 243151
15 | 54:02.02 | 4:52.58 | 243152 | 265109


Track 1

Filename C:\FLAC\Al Green - Greatest Hits (1975) [FLAC] {1998 DCC}\01 Tired of Being Alone.wav

Pre-gap length 0:00:02.00

Peak level 94.3 %
Track quality 99.9 %
Copy CRC 2A8BAD1E
Accurately ripped (confidence 2) [3534F61D]
Copy OK

Track 2

Filename C:\FLAC\Al Green - Greatest Hits (1975) [FLAC] {1998 DCC}\02 Call Me (Come Back Home).wav

Pre-gap length 0:00:03.42

Peak level 95.9 %
Track quality 99.9 %
Copy CRC 63D5225D
Accurately ripped (confidence 3) [02ED76BA]
Copy OK

Track 3

Filename C:\FLAC\Al Green - Greatest Hits (1975) [FLAC] {1998 DCC}\03 I'm Still In Love With You.wav

Pre-gap length 0:00:04.07

Peak level 94.8 %
Track quality 100.0 %
Copy CRC D03F0AF1
Accurately ripped (confidence 3) [7A988FD9]
Copy OK

Track 4

Filename C:\FLAC\Al Green - Greatest Hits (1975) [FLAC] {1998 DCC}\04 Here I Am (Come and Take Me).wav

Pre-gap length 0:00:04.05

Peak level 54.5 %
Track quality 100.0 %
Copy CRC 3C019832
Accurately ripped (confidence 3) [5D9C81EC]
Copy OK

Track 5

Filename C:\FLAC\Al Green - Greatest Hits (1975) [FLAC] {1998 DCC}\05 Love and Happiness.wav

Pre-gap length 0:00:05.63

Peak level 61.4 %
Track quality 99.9 %
Copy CRC 9F07EC51
Accurately ripped (confidence 3) [A0AB9134]
Copy OK

Track 6

Filename C:\FLAC\Al Green - Greatest Hits (1975) [FLAC] {1998 DCC}\06 Let's Stay Together.wav

Pre-gap length 0:00:04.58

Peak level 86.8 %
Track quality 100.0 %
Copy CRC 4F9973D2
Accurately ripped (confidence 3) [F17ED736]
Copy OK

Track 7

Filename C:\FLAC\Al Green - Greatest Hits (1975) [FLAC] {1998 DCC}\07 I Can't Get Next To You.wav

Pre-gap length 0:00:04.62

Peak level 73.5 %
Track quality 99.9 %
Copy CRC 60501B43
Accurately ripped (confidence 3) [1B841EAC]
Copy OK

Track 8

Filename C:\FLAC\Al Green - Greatest Hits (1975) [FLAC] {1998 DCC}\08 You Ought To Be With Me.wav

Pre-gap length 0:00:05.13

Peak level 83.0 %
Track quality 100.0 %
Copy CRC 51CD27AD
Accurately ripped (confidence 3) [C97A8CCC]
Copy OK

Track 9

Filename C:\FLAC\Al Green - Greatest Hits (1975) [FLAC] {1998 DCC}\09 Look What You Done For Me.wav

Pre-gap length 0:00:02.27

Peak level 85.0 %
Track quality 100.0 %
Copy CRC BDC788A2
Accurately ripped (confidence 3) [A8245D52]
Copy OK

Track 10

Filename C:\FLAC\Al Green - Greatest Hits (1975) [FLAC] {1998 DCC}\10 Let's Get Married.wav

Pre-gap length 0:00:04.47

Peak level 85.0 %
Track quality 100.0 %
Copy CRC 5204553F
Accurately ripped (confidence 3) [6F3328CF]
Copy OK

Track 11

Filename C:\FLAC\Al Green - Greatest Hits (1975) [FLAC] {1998 DCC}\11 Livin' For You.wav

Pre-gap length 0:00:05.05

Peak level 79.8 %
Track quality 99.9 %
Copy CRC 369656D4
Accurately ripped (confidence 3) [B5977F85]
Copy OK

Track 12

Filename C:\FLAC\Al Green - Greatest Hits (1975) [FLAC] {1998 DCC}\12 Sha La La (Make Me Happy).wav

Pre-gap length 0:00:04.34

Peak level 70.7 %
Track quality 100.0 %
Copy CRC 61232546
Accurately ripped (confidence 3) [6641F14C]
Copy OK

Track 13

Filename C:\FLAC\Al Green - Greatest Hits (1975) [FLAC] {1998 DCC}\13 L-O-V-E (Love).wav

Pre-gap length 0:00:03.37

Peak level 80.8 %
Track quality 100.0 %
Copy CRC 616FF6E7
Accurately ripped (confidence 3) [0CFE448B]
Copy OK

Track 14

Filename C:\FLAC\Al Green - Greatest Hits (1975) [FLAC] {1998 DCC}\14 Full Of Fire.wav

Pre-gap length 0:00:03.18

Peak level 100.0 %
Track quality 100.0 %
Copy CRC B69946D2
Accurately ripped (confidence 3) [B587FE0C]
Copy OK

Track 15

Filename C:\FLAC\Al Green - Greatest Hits (1975) [FLAC] {1998 DCC}\15 Belle.wav

Pre-gap length 0:00:03.45

Peak level 56.2 %
Track quality 100.0 %
Copy CRC F231B76C
Accurately ripped (confidence 3) [40B4E620]
Copy OK


All tracks accurately ripped

No errors occurred

End of status report


Al Green - Greatest Hits (1975) {1998 DCC}


Thank you to the original uploader