Tags
Language
Tags

Aly & AJ - Insomniatic (Target Exclusive) (2007) {Hollywood}

Posted By: TestTickles
Aly & AJ - Insomniatic (Target Exclusive) (2007) {Hollywood}

Aly & AJ - Insomniatic (Target Exclusive) (2007) {Hollywood}
EAC Rip | FLAC with CUE and LOG | scans | 422 mb
MP3 CBR 320 kbps | RAR | 213 mb
Genre: pop, pop rock

Insomniatic is the 2007 album by sisters Alyson and Amanda Michalka. Alyson is known as Aly and Amanda is AJ and outside of singers, they are also actors. This, their second album, is taken from an exclusive version from Target as it features an additional track, "Tears". This was released by Hollywood Records, a Disney-affiliated label but without most people knowing it is connected to Disney. Therefore, it is the best.

Aly & AJ - Insomniatic (Target Exclusive) (2007) {Hollywood}

01. Potential Breakup Song
02. Bullseye
03. Closure
04. %
05. Like It Or Leave It
06. Like Whoa
07. Insomniatic
08. Silence
09. If I Could Have You Back
10. Blush
11. Flattery
12. I'm Here
13. Chemical React (Remix)
14. Tears (Bonus Track)

Aly & AJ - Insomniatic (Target Exclusive) (2007) {Hollywood}


Exact Audio Copy V1.0 beta 6 from 9. April 2015

EAC extraction logfile from 21. January 2019, 17:55

Aly & AJ / Insomniatic (Target Exclusive)

Used drive : TSSTcorpDVD+-RW TS-L633C Adapter: 1 ID: 0

Read mode : Secure
Utilize accurate stream : Yes
Defeat audio cache : Yes
Make use of C2 pointers : No

Read offset correction : 6
Overread into Lead-In and Lead-Out : No
Fill up missing offset samples with silence : Yes
Delete leading and trailing silent blocks : No
Null samples used in CRC calculations : Yes
Used interface : Native Win32 interface for Win NT & 2000
Gap handling : Appended to previous track

Used output format : Internal WAV Routines
Sample format : 44.100 Hz; 16 Bit; Stereo


TOC of the extracted CD

Track | Start | Length | Start sector | End sector
––––––––––––––––––––––––––––-
1 | 0:00.00 | 3:39.58 | 0 | 16482
2 | 3:39.58 | 3:01.41 | 16483 | 30098
3 | 6:41.24 | 2:49.73 | 30099 | 42846
4 | 9:31.22 | 3:44.07 | 42847 | 59653
5 | 13:15.29 | 3:17.37 | 59654 | 74465
6 | 16:32.66 | 2:30.62 | 74466 | 85777
7 | 19:03.53 | 2:47.00 | 85778 | 98302
8 | 21:50.53 | 3:33.07 | 98303 | 114284
9 | 25:23.60 | 2:52.33 | 114285 | 127217
10 | 28:16.18 | 3:34.07 | 127218 | 143274
11 | 31:50.25 | 4:08.25 | 143275 | 161899
12 | 35:58.50 | 4:05.37 | 161900 | 180311
13 | 40:04.12 | 2:55.66 | 180312 | 193502
14 | 43:00.03 | 2:05.70 | 193503 | 202947
15 | 47:37.73 | 0:31.69 | 214348 | 216741


Track 1

Filename C:\My Documents\My FLAC\Aly & AJ - Insomniatic (Target Exclusive) (2007) [FLAC] {Hollywood}\01 - Potential Breakup Song.wav

Pre-gap length 0:00:02.00

Peak level 100.0 %
Extraction speed 0.9 X
Track quality 99.9 %
Test CRC D2B2440D
Copy CRC D2B2440D
Track not present in AccurateRip database
Copy OK

Track 2

Filename C:\My Documents\My FLAC\Aly & AJ - Insomniatic (Target Exclusive) (2007) [FLAC] {Hollywood}\02 - Bullseye.wav

Peak level 100.0 %
Extraction speed 1.1 X
Track quality 100.0 %
Test CRC B46115AB
Copy CRC B46115AB
Track not present in AccurateRip database
Copy OK

Track 3

Filename C:\My Documents\My FLAC\Aly & AJ - Insomniatic (Target Exclusive) (2007) [FLAC] {Hollywood}\03 - Closure.wav

Peak level 100.0 %
Extraction speed 0.9 X
Track quality 99.9 %
Test CRC 98125C90
Copy CRC 98125C90
Track not present in AccurateRip database
Copy OK

Track 4

Filename C:\My Documents\My FLAC\Aly & AJ - Insomniatic (Target Exclusive) (2007) [FLAC] {Hollywood}\04 - %.wav

Peak level 100.0 %
Extraction speed 1.1 X
Track quality 99.9 %
Test CRC D1C35DBA
Copy CRC D1C35DBA
Track not present in AccurateRip database
Copy OK

Track 5

Filename C:\My Documents\My FLAC\Aly & AJ - Insomniatic (Target Exclusive) (2007) [FLAC] {Hollywood}\05 - Like It Or Leave It.wav

Peak level 100.0 %
Extraction speed 1.3 X
Track quality 100.0 %
Test CRC A97AFF2A
Copy CRC A97AFF2A
Track not present in AccurateRip database
Copy OK

Track 6

Filename C:\My Documents\My FLAC\Aly & AJ - Insomniatic (Target Exclusive) (2007) [FLAC] {Hollywood}\06 - Like Whoa.wav

Peak level 100.0 %
Extraction speed 1.3 X
Track quality 100.0 %
Test CRC 53C9ACC5
Copy CRC 53C9ACC5
Track not present in AccurateRip database
Copy OK

Track 7

Filename C:\My Documents\My FLAC\Aly & AJ - Insomniatic (Target Exclusive) (2007) [FLAC] {Hollywood}\07 - Insomniatic.wav

Peak level 100.0 %
Extraction speed 1.1 X
Track quality 99.9 %
Test CRC 021C8049
Copy CRC 021C8049
Track not present in AccurateRip database
Copy OK

Track 8

Filename C:\My Documents\My FLAC\Aly & AJ - Insomniatic (Target Exclusive) (2007) [FLAC] {Hollywood}\08 - Silence.wav

Peak level 100.0 %
Extraction speed 1.2 X
Track quality 99.9 %
Test CRC 6B43ADFC
Copy CRC 6B43ADFC
Track not present in AccurateRip database
Copy OK

Track 9

Filename C:\My Documents\My FLAC\Aly & AJ - Insomniatic (Target Exclusive) (2007) [FLAC] {Hollywood}\09 - If I Could Have You Back.wav

Peak level 100.0 %
Extraction speed 1.4 X
Track quality 100.0 %
Test CRC AA96C090
Copy CRC AA96C090
Track not present in AccurateRip database
Copy OK

Track 10

Filename C:\My Documents\My FLAC\Aly & AJ - Insomniatic (Target Exclusive) (2007) [FLAC] {Hollywood}\10 - Blush.wav

Peak level 100.0 %
Extraction speed 1.3 X
Track quality 99.9 %
Test CRC 3F433C80
Copy CRC 3F433C80
Track not present in AccurateRip database
Copy OK

Track 11

Filename C:\My Documents\My FLAC\Aly & AJ - Insomniatic (Target Exclusive) (2007) [FLAC] {Hollywood}\11 - Flattery.wav

Peak level 100.0 %
Extraction speed 1.4 X
Track quality 99.9 %
Test CRC 057A5249
Copy CRC 057A5249
Track not present in AccurateRip database
Copy OK

Track 12

Filename C:\My Documents\My FLAC\Aly & AJ - Insomniatic (Target Exclusive) (2007) [FLAC] {Hollywood}\12 - I'm Here.wav

Peak level 100.0 %
Extraction speed 1.6 X
Track quality 100.0 %
Test CRC 44361F01
Copy CRC 44361F01
Track not present in AccurateRip database
Copy OK

Track 13

Filename C:\My Documents\My FLAC\Aly & AJ - Insomniatic (Target Exclusive) (2007) [FLAC] {Hollywood}\13 - Chemical React (Remix).wav

Peak level 100.0 %
Extraction speed 1.5 X
Track quality 100.0 %
Test CRC 042B5916
Copy CRC 042B5916
Track not present in AccurateRip database
Copy OK

Track 14

Filename C:\My Documents\My FLAC\Aly & AJ - Insomniatic (Target Exclusive) (2007) [FLAC] {Hollywood}\14 - Tears (Bonus Track).wav

Peak level 100.0 %
Extraction speed 1.5 X
Track quality 100.0 %
Test CRC 0A82656D
Copy CRC 0A82656D
Track not present in AccurateRip database
Copy OK


None of the tracks are present in the AccurateRip database

No errors occurred

End of status report

–– CUETools DB Plugin V2.1.6

[CTDB TOCID: RIHV813ThgzkDXMw3Ia3JckMDUs-] found
Submit result: RIHV813ThgzkDXMw3Ia3JckMDUs- has been confirmed
Track | CTDB Status
1 | (2/2) Accurately ripped
2 | (2/2) Accurately ripped
3 | (2/2) Accurately ripped
4 | (2/2) Accurately ripped
5 | (2/2) Accurately ripped
6 | (2/2) Accurately ripped
7 | (2/2) Accurately ripped
8 | (2/2) Accurately ripped
9 | (2/2) Accurately ripped
10 | (2/2) Accurately ripped
11 | (2/2) Accurately ripped
12 | (2/2) Accurately ripped
13 | (2/2) Accurately ripped
14 | (2/2) Accurately ripped


==== Log checksum 9A9973FCBE290B86D898AAE57E5591FEF16FA196F087E54D6A02F85079CB7FEC ====


Aly & AJ - Insomniatic (Target Exclusive) (2007) {Hollywood}