Subcategories
Tags
Language
Tags

SRC - s/t (1968) {1993 One Way} **[RE-UP]**

Posted By: TestTickles
SRC - s/t (1968) {1993 One Way} **[RE-UP]**

SRC - s/t (1968) {1993 One Way}
EAC Rip | FLAC with CUE and log | scans | 304 mb
MP3 CBR 320kbps | RAR | 102 mb
Genre: rock, psychedelic rock

The Scot Richard Case were a Detroit, Michigan band who some say sounded like a psychedelic band from England. Fronted by Scott Richardson, they were signed by Capitol Records and ended up releasing three album. This is their debut from 1968. The CD was released by One Way/CEMA in 1993 and included two bonus cuts, featured here.

SRC - s/t (1968) {1993 One Way} **[RE-UP]**

01. Black Sheep
02. Daystar
03. Exile
04. Marionette
05. Onesimpletask
06. Paragon Council
07. Refugeve
08. Interval
09. Morning Mood (Bonus Track)
10. Black Sheep (45 Version - Bonus Track)

EAC extraction logfile from 6. September 2007, 12:04 for CD
SRC / SRC

Used drive : _NEC CD-RW NR-9100A Adapter: 1 ID: 0
Read mode : Secure with NO C2, accurate stream, disable cache
Read offset correction : 685
Overread into Lead-In and Lead-Out : No

Used output format : C:\Program Files\FLAC\flac.exe (User Defined Encoder)
128 kBit/s
Additional command line options : -V -8 -T "artist=%a" -T "title=%t" -T "album=%g" -T "date=%y" -T "tracknumber=%n" -T "genre=%m" %s

Other options :
Fill up missing offset samples with silence : Yes
Delete leading and trailing silent blocks : No
Installed external ASPI interface


Track 1
Filename C:\cuntfist\FLAC\SRC - s-t (1968) [FLAC] {1993 One Way}\01 - Black Sheep (Album Version).wav

Pre-gap length 0:00:02.00

Peak level 98.8 %
Track quality 100.0 %
Test CRC 64A2CE24
Copy CRC 64A2CE24
Copy OK

Track 2
Filename C:\cuntfist\FLAC\SRC - s-t (1968) [FLAC] {1993 One Way}\02 - Daystar.wav

Pre-gap length 0:00:01.68

Peak level 98.8 %
Track quality 99.9 %
Test CRC 34C68A1B
Copy CRC 34C68A1B
Copy OK

Track 3
Filename C:\cuntfist\FLAC\SRC - s-t (1968) [FLAC] {1993 One Way}\03 - Exile.wav

Pre-gap length 0:00:01.42

Peak level 98.8 %
Track quality 100.0 %
Test CRC 81499A1D
Copy CRC 81499A1D
Copy OK

Track 4
Filename C:\cuntfist\FLAC\SRC - s-t (1968) [FLAC] {1993 One Way}\04 - Marionette.wav

Pre-gap length 0:00:01.17

Peak level 98.8 %
Track quality 99.9 %
Test CRC 77CE3B16
Copy CRC 77CE3B16
Copy OK

Track 5
Filename C:\cuntfist\FLAC\SRC - s-t (1968) [FLAC] {1993 One Way}\05 - Onesimpletask.wav

Pre-gap length 0:00:02.25

Peak level 98.8 %
Track quality 100.0 %
Test CRC 90F5DB40
Copy CRC 90F5DB40
Copy OK

Track 6
Filename C:\cuntfist\FLAC\SRC - s-t (1968) [FLAC] {1993 One Way}\06 - Paragon Council.wav

Pre-gap length 0:00:01.20

Peak level 98.8 %
Track quality 99.9 %
Test CRC D31BD20F
Copy CRC D31BD20F
Copy OK

Track 7
Filename C:\cuntfist\FLAC\SRC - s-t (1968) [FLAC] {1993 One Way}\07 - Refugeve.wav

Pre-gap length 0:00:01.27

Peak level 98.8 %
Track quality 100.0 %
Test CRC 00194B97
Copy CRC 00194B97
Copy OK

Track 8
Filename C:\cuntfist\FLAC\SRC - s-t (1968) [FLAC] {1993 One Way}\08 - Interval.wav

Peak level 98.8 %
Track quality 100.0 %
Test CRC 6A458C21
Copy CRC 6A458C21
Copy OK

Track 9
Filename C:\cuntfist\FLAC\SRC - s-t (1968) [FLAC] {1993 One Way}\09 - Morning Mood (Bonus Track).wav

Peak level 98.8 %
Track quality 99.9 %
Test CRC FC35E488
Copy CRC FC35E488
Copy OK

Track 10
Filename C:\cuntfist\FLAC\SRC - s-t (1968) [FLAC] {1993 One Way}\10 - Black Sheep (45 Version - Bonus Track).wav

Pre-gap length 0:00:01.52

Peak level 98.8 %
Track quality 100.0 %
Test CRC 4B434F37
Copy CRC 4B434F37
Copy OK

No errors occured


End of status report


SRC - s/t (1968) {1993 One Way} **[RE-UP]**


Thank you to the original uploader.