Tags
Language
Tags

Steve Marrs - Somebody Somewhere (1982) {2013 Sony Records Int'l Japan}

Posted By: TestTickles
Steve Marrs - Somebody Somewhere (1982) {2013 Sony Records Int'l Japan}

Steve Marrs - Somebody Somewhere (1982) {2013 Sony Records Int'l Japan}
EAC Rip | FLAC with CUE and log | scans | 228 mb
MP3 CBR 320kbps | RAR | 78 mb
Genre: pop rock, soft rock, AOR

Somebody Somewhere is the 1982 album by Steve Marrs. This was remastered in 2013 by Sony Records Int'l in Japan.

1. Don’t Come Back Stranger
2. Say It Again
3. How Was I To Know
4. Talkin’ About My Baby
5. Somebody Somewhere
6. Why Did I Wait So Long
7. Just A Dreamer
8. I Can’t Take It No More
9. One More Loser

Exact Audio Copy V1.0 beta 3 from 29. August 2011

EAC extraction logfile from 14. May 2014, 18:12

Steve Marrs / Somebody Somewhere

Used drive : TEAC DVD-ROM DV-28SW Adapter: 1 ID: 0

Read mode : Secure
Utilize accurate stream : Yes
Defeat audio cache : Yes
Make use of C2 pointers : No

Read offset correction : 96
Overread into Lead-In and Lead-Out : No
Fill up missing offset samples with silence : Yes
Delete leading and trailing silent blocks : No
Null samples used in CRC calculations : Yes
Used interface : Native Win32 interface for Win NT & 2000
Gap handling : Appended to previous track

Used output format : User Defined Encoder
Selected bitrate : 128 kBit/s
Quality : High
Add ID3 tag : No
Command line compressor : C:\Program Files (x86)\Exact Audio Copy\Flac\flac.exe
Additional command line options : -T "artist=%artist%" -T "title=%title%" -T "album=%albumtitle%" -T "date=%year%" -T "tracknumber=%tracknr%" -T "genre=%genre%" -5 %source%

TOC of the extracted CD

Track | Start | Length | Start sector | End sector
––––––––––––––––––––––––––––-
1 | 0:00.00 | 4:03.58 | 0 | 18282
2 | 4:03.58 | 3:13.01 | 18283 | 32758
3 | 7:16.59 | 3:13.43 | 32759 | 47276
4 | 10:30.27 | 4:01.16 | 47277 | 65367
5 | 14:31.43 | 3:26.57 | 65368 | 80874
6 | 17:58.25 | 4:07.34 | 80875 | 99433
7 | 22:05.59 | 4:59.19 | 99434 | 121877
8 | 27:05.03 | 3:19.61 | 121878 | 136863
9 | 30:24.64 | 3:32.58 | 136864 | 152821

Track 1

Filename C:\cuntfist\FLAC\Steve Marrs - Somebody Somewhere (1982) [FLAC] {2013 Sony Records Int'l Japan}\01 - Don't Come Back A Stranger.wav

Pre-gap length 0:00:02.00

Peak level 98.9 %
Extraction speed 4.4 X
Track quality 100.0 %
Test CRC 55C80C75
Copy CRC 55C80C75
Accurately ripped (confidence 1) [2EE9A584] (AR v2)
Copy OK

Track 2

Filename C:\cuntfist\FLAC\Steve Marrs - Somebody Somewhere (1982) [FLAC] {2013 Sony Records Int'l Japan}\02 - Say It Again.wav

Peak level 98.0 %
Extraction speed 4.6 X
Track quality 100.0 %
Test CRC 521A431F
Copy CRC 521A431F
Accurately ripped (confidence 1) [117DAB43] (AR v2)
Copy OK

Track 3

Filename C:\cuntfist\FLAC\Steve Marrs - Somebody Somewhere (1982) [FLAC] {2013 Sony Records Int'l Japan}\03 - How Was I To Know.wav

Pre-gap length 0:00:01.14

Peak level 98.8 %
Extraction speed 4.9 X
Track quality 100.0 %
Test CRC 3C9855DD
Copy CRC 3C9855DD
Accurately ripped (confidence 1) [021715CE] (AR v2)
Copy OK

Track 4

Filename C:\cuntfist\FLAC\Steve Marrs - Somebody Somewhere (1982) [FLAC] {2013 Sony Records Int'l Japan}\04 - Talkin' About My Baby.wav

Pre-gap length 0:00:01.57

Peak level 98.8 %
Extraction speed 4.8 X
Track quality 99.9 %
Test CRC 34276548
Copy CRC 34276548
Accurately ripped (confidence 1) [9A886560] (AR v2)
Copy OK

Track 5

Filename C:\cuntfist\FLAC\Steve Marrs - Somebody Somewhere (1982) [FLAC] {2013 Sony Records Int'l Japan}\05 - Somebody Somewhere.wav

Peak level 98.1 %
Extraction speed 5.7 X
Track quality 100.0 %
Test CRC 90FD6690
Copy CRC 90FD6690
Accurately ripped (confidence 1) [AA21BC87] (AR v2)
Copy OK

Track 6

Filename C:\cuntfist\FLAC\Steve Marrs - Somebody Somewhere (1982) [FLAC] {2013 Sony Records Int'l Japan}\06 - Why Did I Wait So Long.wav

Pre-gap length 0:00:01.53

Peak level 97.0 %
Extraction speed 6.1 X
Track quality 100.0 %
Test CRC 4ECB131E
Copy CRC 4ECB131E
Accurately ripped (confidence 1) [B67A9F2A] (AR v2)
Copy OK

Track 7

Filename C:\cuntfist\FLAC\Steve Marrs - Somebody Somewhere (1982) [FLAC] {2013 Sony Records Int'l Japan}\07 - Just A Dreamer.wav

Peak level 97.8 %
Extraction speed 6.6 X
Track quality 100.0 %
Test CRC 6946B974
Copy CRC 6946B974
Accurately ripped (confidence 1) [D7A76A84] (AR v2)
Copy OK

Track 8

Filename C:\cuntfist\FLAC\Steve Marrs - Somebody Somewhere (1982) [FLAC] {2013 Sony Records Int'l Japan}\08 - I Can't Take It No More.wav

Pre-gap length 0:00:01.94

Peak level 97.1 %
Extraction speed 5.7 X
Track quality 99.9 %
Test CRC FB13A725
Copy CRC FB13A725
Accurately ripped (confidence 1) [6382EA5B] (AR v2)
Copy OK

Track 9

Filename C:\cuntfist\FLAC\Steve Marrs - Somebody Somewhere (1982) [FLAC] {2013 Sony Records Int'l Japan}\09 - One More Loser.wav

Peak level 97.9 %
Extraction speed 6.8 X
Track quality 100.0 %
Test CRC 647AD91B
Copy CRC 647AD91B
Accurately ripped (confidence 1) [AC30A23A] (AR v2)
Copy OK

All tracks accurately ripped

No errors occurred

End of status report

==== Log checksum 0B554BAE68B7AE5FE4E78CF339A4E7CA7691E78595E2ADF4DD4FAB9E2ED1E972 ====


Steve Marrs - Somebody Somewhere (1982) {2013 Sony Records Int'l Japan}


Thank you to the original uploader.