Tags
Language
Tags

Steve Turre - Lotus Flower (1999) {Verve} **[RE-UP]**

Posted By: TestTickles
Steve Turre - Lotus Flower (1999) {Verve} **[RE-UP]**

Steve Turre - Lotus Flower (1999) {Verve}
EAC Rip | FLAC with CUE and log | scans | 403 mb
MP3 CBR 320kbps | RAR | 173 mb
Genre: jazz

Lotus Flower is the 1999 album by American jazz trombonist Steve Turre. Known as a member of the Saturday Night Live Band, this was his second and last album for Verve but it is considered one of the best. The album also features help from Regina Carter, Lewis Nash, Buster Williams and Don Conreaux on gong.

Steve Turre - Lotus Flower (1999) {Verve} **[RE-UP]**

01. The Lotus Flower
02. Chairman Of The Board
03. The Inflated Tear
04. The Organ Grinder
05. Passion For Peace
06. Sposm
07. The Fragrance Of Love
08. Blackfoot
09. Goodbye
10. Shorty

Steve Turre-trombone, sea shells (track 10)
Regina Carter-violin
Akua Dixon-cello
Mulgrew Miller-piano
Buster Williams-bass
Lewis Nash-drums
Kimati Dinizuli-djembe & percussion (tracks 1 & 10)
Don Conreaux-gong (tracks 3 & 5)

Produced by Billy Blanks
Engineered by Gary Chester
Assistant engineers: Yvonne Edibalian & Jim Murray
Mastered by James Nichols

EAC extraction logfile from 27. June 2017, 22:48 for CD
Steve Turre / Lotus Flower

Used drive : TSSTcorpDVD+-RW TS-H653B Adapter: 2 ID: 0
Read mode : Secure with NO C2, accurate stream, disable cache
Read offset correction : 6
Overread into Lead-In and Lead-Out : No

Used output format : Internal WAV Routines
44.100 Hz; 16 Bit; Stereo

Other options :
Fill up missing offset samples with silence : Yes
Delete leading and trailing silent blocks : No
Native Win32 interface for Win NT & 2000


Track 1
Filename C:\Documents and Settings\cuntfist\Desktop\FLAC's\20\Steve Turre - Lotus Flower (1999) [FLAC] {Verve}\01 - The Lotus Flower.wav

Pre-gap length 0:00:02.00

Peak level 100.0 %
Track quality 100.0 %
Test CRC 7F6D81C7
Copy CRC 7F6D81C7
Copy OK

Track 2
Filename C:\Documents and Settings\cuntfist\Desktop\FLAC's\20\Steve Turre - Lotus Flower (1999) [FLAC] {Verve}\02 - Chairman Of The Board.wav

Pre-gap length 0:00:01.53

Peak level 100.0 %
Track quality 100.0 %
Test CRC EFD8F616
Copy CRC EFD8F616
Copy OK

Track 3
Filename C:\Documents and Settings\cuntfist\Desktop\FLAC's\20\Steve Turre - Lotus Flower (1999) [FLAC] {Verve}\03 - The Inflated Tear.wav

Pre-gap length 0:00:01.50

Peak level 91.7 %
Track quality 100.0 %
Test CRC 08CCB64C
Copy CRC 08CCB64C
Copy OK

Track 4
Filename C:\Documents and Settings\cuntfist\Desktop\FLAC's\20\Steve Turre - Lotus Flower (1999) [FLAC] {Verve}\04 - The Organ Grinder.wav

Pre-gap length 0:00:00.16

Peak level 100.0 %
Track quality 100.0 %
Test CRC 00905A47
Copy CRC 00905A47
Copy OK

Track 5
Filename C:\Documents and Settings\cuntfist\Desktop\FLAC's\20\Steve Turre - Lotus Flower (1999) [FLAC] {Verve}\05 - Passion For Peace.wav

Peak level 80.1 %
Track quality 99.9 %
Test CRC 7E6CFC46
Copy CRC 7E6CFC46
Copy OK

Track 6
Filename C:\Documents and Settings\cuntfist\Desktop\FLAC's\20\Steve Turre - Lotus Flower (1999) [FLAC] {Verve}\06 - Sposm.wav

Pre-gap length 0:00:00.42

Peak level 90.5 %
Track quality 100.0 %
Test CRC FE848394
Copy CRC FE848394
Copy OK

Track 7
Filename C:\Documents and Settings\cuntfist\Desktop\FLAC's\20\Steve Turre - Lotus Flower (1999) [FLAC] {Verve}\07 - The Fragrance Of Love.wav

Pre-gap length 0:00:01.20

Peak level 67.9 %
Track quality 100.0 %
Test CRC 541405C5
Copy CRC 541405C5
Copy OK

Track 8
Filename C:\Documents and Settings\cuntfist\Desktop\FLAC's\20\Steve Turre - Lotus Flower (1999) [FLAC] {Verve}\08 - Blackfoot.wav

Pre-gap length 0:00:00.97

Peak level 100.0 %
Track quality 100.0 %
Test CRC 94B7A09B
Copy CRC 94B7A09B
Copy OK

Track 9
Filename C:\Documents and Settings\cuntfist\Desktop\FLAC's\20\Steve Turre - Lotus Flower (1999) [FLAC] {Verve}\09 - Goodbye.wav

Pre-gap length 0:00:00.60

Peak level 74.6 %
Track quality 100.0 %
Test CRC 2007D8AB
Copy CRC 2007D8AB
Copy OK

Track 10
Filename C:\Documents and Settings\cuntfist\Desktop\FLAC's\20\Steve Turre - Lotus Flower (1999) [FLAC] {Verve}\10 - Shorty.wav

Pre-gap length 0:00:00.13

Peak level 95.2 %
Track quality 99.9 %
Test CRC 1179FB42
Copy CRC 1179FB42
Copy OK

No errors occured


End of status report


Steve Turre - Lotus Flower (1999) {Verve} **[RE-UP]**