Tags
Language
Tags

Susie Ibarra/Denis Charles - Drum Talk (1998) {Wobbly Rail} **[RE-UP]**

Posted By: TestTickles
Susie Ibarra/Denis Charles - Drum Talk (1998) {Wobbly Rail} **[RE-UP]**

Susie Ibarra/Denis Charles - Drum Talk (1998) {Wobbly Rail}
EAC Rip | FLAC with CUE and log | scans | 323 mb
MP3 CBR 320kbps | RAR | 105 mb
Genre: jazz, free jazz, improvisational jazz

Drum Talk is a collaborative drum album between Denis Charles and Susie Ibarra, playing and performing on stage and uniting in rhythm. This was released by Wobbly Rail in 1998.

Susie Ibarra/Denis Charles - Drum Talk (1998) {Wobbly Rail} **[RE-UP]**

1. welcome
2. Drum Talk
3. For Arcah
4. Kulintang Medley
5. Sunshowers
6. Stand Back
7. good night!

EAC extraction logfile from 26. November 2005, 0:47 for CD
Susie Ibarra, Denis Charles / Drum Talk

Used drive : LITE-ON DVDRW SOHW-1633S Adapter: 0 ID: 0
Read mode : Secure with NO C2, accurate stream, disable cache
Read offset correction : 12
Overread into Lead-In and Lead-Out : No

Used output format : Internal WAV Routines
44.100 Hz; 16 Bit; Stereo

Other options :
Fill up missing offset samples with silence : Yes
Delete leading and trailing silent blocks : No
Installed external ASPI interface


Track 1
Filename C:\FLAC\Susie Ibarra, Denis Charles - Drum Talk (1998) [FLAC] {Wobbly Rail}\01 - welcome.wav

Pre-gap length 0:00:02.00

Peak level 99.7 %
Track quality 99.9 %
Test CRC C94EF29C
Copy CRC C94EF29C
Copy OK

Track 2
Filename C:\FLAC\Susie Ibarra, Denis Charles - Drum Talk (1998) [FLAC] {Wobbly Rail}\02 - Drum Talk.wav

Pre-gap length 0:00:03.18

Peak level 97.9 %
Track quality 100.0 %
Test CRC 730315B5
Copy CRC 730315B5
Copy OK

Track 3
Filename C:\FLAC\Susie Ibarra, Denis Charles - Drum Talk (1998) [FLAC] {Wobbly Rail}\03 - For Arcah.wav

Pre-gap length 0:00:03.18

Peak level 98.0 %
Track quality 100.0 %
Test CRC 35BDC821
Copy CRC 35BDC821
Copy OK

Track 4
Filename C:\FLAC\Susie Ibarra, Denis Charles - Drum Talk (1998) [FLAC] {Wobbly Rail}\04 - Kulintang Medley.wav

Pre-gap length 0:00:03.17

Peak level 96.1 %
Track quality 100.0 %
Test CRC 83EEE3EC
Copy CRC 83EEE3EC
Copy OK

Track 5
Filename C:\FLAC\Susie Ibarra, Denis Charles - Drum Talk (1998) [FLAC] {Wobbly Rail}\05 - Sunshowers.wav

Pre-gap length 0:00:03.17

Peak level 79.5 %
Track quality 99.9 %
Test CRC A7F6715C
Copy CRC A7F6715C
Copy OK

Track 6
Filename C:\FLAC\Susie Ibarra, Denis Charles - Drum Talk (1998) [FLAC] {Wobbly Rail}\06 - Stand Back.wav

Pre-gap length 0:00:03.18

Peak level 98.1 %
Track quality 99.9 %
Test CRC 7B5388B9
Copy CRC 7B5388B9
Copy OK

Track 7
Filename C:\FLAC\Susie Ibarra, Denis Charles - Drum Talk (1998) [FLAC] {Wobbly Rail}\07 - good night!.wav

Peak level 98.0 %
Track quality 100.0 %
Test CRC CF4A10F5
Copy CRC CF4A10F5
Copy OK

No errors occured


End of status report


Susie Ibarra/Denis Charles - Drum Talk (1998) {Wobbly Rail} **[RE-UP]**