Tags
Language
Tags
January 2023
Su Mo Tu We Th Fr Sa
1 2 3 4 5 6 7
8 9 10 11 12 13 14
15 16 17 18 19 20 21
22 23 24 25 26 27 28
29 30 31 1 2 3 4

Silver Jews - American Water (1998) {Drag City}

Posted By: TestTickles
Silver Jews - American Water (1998) {Drag City}

Silver Jews - American Water (1998) {Drag City}
EAC Rip | FLAC with CUE and LOG | scans | 285 mb
MP3 CBR 320 kbps | RAR | 105 mb
Genre: indie rock

American Water is the 1998 album by New York band Silver Jews. This comes from the compound of Drag City.

01. Random Rules (3:58)
02. Smith & Jones Forever (3:18)
03. Night Society (2:17)
04. Federal Dust (4:01)
05. People (4:43)
06. Blue Arrangements (4:38)
07. We Are Real (4:22)
08. Send In The Clouds (5:24)
09. Like Like The The The Death (3:59)
10. Buckingham Rabbit (4:56)
11. Honk If You're Lonely (2:47)
12. The Wild Kindness (3:54)

Exact Audio Copy V0.99 prebeta 2 from 28. July 2007

EAC extraction logfile from 15. February 2008, 7:27

Silver Jews / American Water

Used drive : TOSHIBA CD/DVDW SD-R5372 Adapter: 0 ID: 2

Read mode : Secure
Utilize accurate stream : Yes
Defeat audio cache : Yes
Make use of C2 pointers : No

Read offset correction : 704
Overread into Lead-In and Lead-Out : No
Fill up missing offset samples with silence : Yes
Delete leading and trailing silent blocks : No
Null samples used in CRC calculations : Yes
Used interface : Installed external ASPI interface
Gap handling : Appended to previous track

Used output format : User Defined Encoder
Selected bitrate : 192 kBit/s
Quality : High
Add ID3 tag : No
Command line compressor : C:\Program Files\Exact Audio Copy\flac.exe
Additional command line options : -8 -A tukey(0.25) -A gauss(0.1875) -b 4096 -V -T "artist=%a" -T "title=%t" -T "album=%g" -T "date=%y" -T "tracknumber=%n" -T "genre=%m" %s –sector-align

TOC of the extracted CD

Track | Start | Length | Start sector | End sector
––––––––––––––––––––––––––––-
1 | 0:00.00 | 3:58.25 | 0 | 17874
2 | 3:58.25 | 3:18.35 | 17875 | 32759
3 | 7:16.60 | 2:17.07 | 32760 | 43041
4 | 9:33.67 | 4:01.33 | 43042 | 61149
5 | 13:35.25 | 4:43.29 | 61150 | 82403
6 | 18:18.54 | 4:38.23 | 82404 | 103276
7 | 22:57.02 | 4:22.35 | 103277 | 122961
8 | 27:19.37 | 5:24.25 | 122962 | 147286
9 | 32:43.62 | 3:58.65 | 147287 | 165201
10 | 36:42.52 | 4:56.43 | 165202 | 187444
11 | 41:39.20 | 2:47.30 | 187445 | 199999
12 | 44:26.50 | 3:54.27 | 200000 | 217576

Track 1

Filename C:\cuntfist\FLAC\Silver Jews - American Water (1998) [FLAC] {Drag City}\01 - Random Rules.wav

Pre-gap length 0:00:02.00

Peak level 98.8 %
Track quality 100.0 %
Test CRC 04D93C55
Copy CRC 04D93C55
Copy OK

Track 2

Filename C:\cuntfist\FLAC\Silver Jews - American Water (1998) [FLAC] {Drag City}\02 - Smith & Jones Forever.wav

Pre-gap length 0:00:03.26

Peak level 98.1 %
Track quality 100.0 %
Test CRC 2B9CD583
Copy CRC 2B9CD583
Copy OK

Track 3

Filename C:\cuntfist\FLAC\Silver Jews - American Water (1998) [FLAC] {Drag City}\03 - Night Society.wav

Pre-gap length 0:00:00.44

Peak level 98.0 %
Track quality 100.0 %
Test CRC C67A4CB2
Copy CRC C67A4CB2
Copy OK

Track 4

Filename C:\cuntfist\FLAC\Silver Jews - American Water (1998) [FLAC] {Drag City}\04 - Federal Dust.wav

Pre-gap length 0:00:01.16

Peak level 98.0 %
Track quality 100.0 %
Test CRC C8A9E871
Copy CRC C8A9E871
Copy OK

Track 5

Filename C:\cuntfist\FLAC\Silver Jews - American Water (1998) [FLAC] {Drag City}\05 - People.wav

Pre-gap length 0:00:02.24

Peak level 98.2 %
Track quality 100.0 %
Test CRC 645F631C
Copy CRC 645F631C
Copy OK

Track 6

Filename C:\cuntfist\FLAC\Silver Jews - American Water (1998) [FLAC] {Drag City}\06 - Blue Arrangements.wav

Pre-gap length 0:00:01.25

Peak level 98.7 %
Track quality 100.0 %
Test CRC 5B8AE3C1
Copy CRC 5B8AE3C1
Copy OK

Track 7

Filename C:\cuntfist\FLAC\Silver Jews - American Water (1998) [FLAC] {Drag City}\07 - We Are Real.wav

Pre-gap length 0:00:01.96

Peak level 98.1 %
Track quality 100.0 %
Test CRC B82B5216
Copy CRC B82B5216
Copy OK

Track 8

Filename C:\cuntfist\FLAC\Silver Jews - American Water (1998) [FLAC] {Drag City}\08 - Send In The Clouds.wav

Pre-gap length 0:00:01.96

Peak level 98.8 %
Track quality 100.0 %
Test CRC E205450F
Copy CRC E205450F
Copy OK

Track 9

Filename C:\cuntfist\FLAC\Silver Jews - American Water (1998) [FLAC] {Drag City}\09 - Like Like The The The Death.wav

Pre-gap length 0:00:01.86

Peak level 98.1 %
Track quality 100.0 %
Test CRC EAAB9636
Copy CRC EAAB9636
Copy OK

Track 10

Filename C:\cuntfist\FLAC\Silver Jews - American Water (1998) [FLAC] {Drag City}\10 - Buckingham Rabbit.wav

Pre-gap length 0:00:00.56

Peak level 98.1 %
Track quality 100.0 %
Test CRC 83D53D06
Copy CRC 83D53D06
Copy OK

Track 11

Filename C:\cuntfist\FLAC\Silver Jews - American Water (1998) [FLAC] {Drag City}\11 - Honk If You're Lonely.wav

Pre-gap length 0:00:02.00

Peak level 98.4 %
Track quality 100.0 %
Test CRC 9606BEBE
Copy CRC 9606BEBE
Copy OK

Track 12

Filename C:\cuntfist\FLAC\Silver Jews - American Water (1998) [FLAC] {Drag City}\12 - The Wild Kindness.wav

Pre-gap length 0:00:02.66

Peak level 98.1 %
Track quality 100.0 %
Test CRC 29F2016A
Copy CRC 29F2016A
Copy OK

No errors occurred

End of status report
.

Silver Jews - American Water (1998) {Drag City}


Thank you to the original uploader.