Tags
Language
Tags

Bobby Previte - The 23 Constellations Of Joan Miró (2001) {Tzadik}

Posted By: TestTickles
Bobby Previte - The 23 Constellations Of Joan Miró (2001) {Tzadik}

Bobby Previte - The 23 Constellations Of Joan Miró (2001) {Tzadik}
EAC Rip | FLAC with CUE and LOG | scans | 330 mb
MP3 CBR 320 kbps | RAR | 135 mb
Genre: contemporary jazz

The 23 Constellations Of Joan Miró is the 2001 album by Bobby Previte. This is a Tzadik presentation.

Bobby Previte - The 23 Constellations Of Joan Miró (2001) {Tzadik}

01. Sunrise
02. The Escape Ladder
03. People At Night Guided By The Phosphorescent Tracks Of Snails
04. Women At The Beach
05. Woman With Blonde Armpit Combing Her Hair By The Light Of The Stars
06. Morning Star
07. Wounded Personage
08. Women And Birds
09. Women At Night
10. Acrobatic Dancers
11. On The Thirteenth, The Ladder Brushed The Firmament
12. Nocturne
13. The Poetess
14. Awakening In The Early Morning
15. Toward The Rainbow
16. Women Encircled By The Flight Of A Bird
17. Women At The Seashore Made Iridescent By A Passing Swan
18. The Migratory Bird
19. Cyphers And Constellations In Love With A Woman
20. The Beautiful Bird Reveals The Unknown To A Pair Of Lovers
21. The Rose Dusk Caresses The Sex Of Women And Birds
22. The Passage Of The Divine Bird

Exact Audio Copy V0.99 prebeta 4 from 23. January 2008

Отчёт EAC об извлечении, выполненном 14. апрель 2008, 2:44

Bobby Previte / The 23 Constellations Of Joan Mirу

Дисковод: Optiarc DVD RW AD-7170A Adapter: 0 ID: 1

Режим чтения : Достоверность
Использование точного потока : Да
Отключение кэша аудио : Да
Использование указателей C2 : Нет

Коррекция смещения при чтении : 48
Способность читать области Lead-in и Lead-out : Нет
Заполнение пропущенных сэмплов тишиной : Да
Удаление блоков с тишиной в начале и конце : Нет
При вычислениях CRC использовались нулевые сэмплы : Нет
Интерфейс : Встроенный Win32-интерфейс для Win NT/2000

Выходной формат : Пользовательский кодировщик
Выбранный битрейт : 768 kBit/s
Качество : Высокий
Добавление ID3-тэга : Нет
Утилита сжатия : C:\Program Files\Exact Audio Copy\FLAC\FLAC.EXE
Дополнительные параметры : -6 -V -T "ARTIST=%a" -T "TITLE=%t" -T "ALBUM=%g" -T "DATE=%y" -T "TRACKNUMBER=%n" -T "GENRE=%m" -T "COMMENT=%e" %s -o %d

TOC извлечённого CD

Трек | Старт | Длительность | Начальный сектор | Конечный сектор
––––––––––––––––––––––––––––––––––-
1 | 0:00.00 | 3:07.03 | 0 | 14027
2 | 3:07.03 | 2:15.52 | 14028 | 24204
3 | 5:22.55 | 2:24.00 | 24205 | 35004
4 | 7:46.55 | 2:11.25 | 35005 | 44854
5 | 9:58.05 | 2:15.53 | 44855 | 55032
6 | 12:13.58 | 2:34.71 | 55033 | 66653
7 | 14:48.54 | 2:23.26 | 66654 | 77404
8 | 17:12.05 | 2:11.37 | 77405 | 87266
9 | 19:23.42 | 2:00.40 | 87267 | 96306
10 | 21:24.07 | 2:15.49 | 96307 | 106480
11 | 23:39.56 | 2:43.70 | 106481 | 118775
12 | 26:23.51 | 2:20.21 | 118776 | 129296
13 | 28:43.72 | 2:49.01 | 129297 | 141972
14 | 31:32.73 | 2:13.37 | 141973 | 151984
15 | 33:46.35 | 2:42.25 | 151985 | 164159
16 | 36:28.60 | 2:54.69 | 164160 | 177278
17 | 39:23.54 | 1:32.66 | 177279 | 184244
18 | 40:56.45 | 2:06.25 | 184245 | 193719
19 | 43:02.70 | 2:16.48 | 193720 | 203967
20 | 45:19.43 | 2:03.69 | 203968 | 213261
21 | 47:23.37 | 2:42.25 | 213262 | 225436
22 | 50:05.62 | 2:13.35 | 225437 | 235446
23 | 52:19.22 | 2:57.07 | 235447 | 248728

Характеристики диапазона извлечения и сообщения об ошибках

Выбранный диапазон

Имя файла D:\smallballs\FLAC\Bobby Previte - The 23 Constellations Of Joan Miro (2001) [FLAC] {Tzadik}\Bobby Previte - The 23 Constellations Of Joan Miro.wav

Пиковый уровень 98.8 %
Качество диапазона 100.0 %
CRC копии 0D4F0D4E
Копирование… OK

Ошибок не произошло

AccurateRip: сводка

Трек 1 точное извлечение (доверие 1) [E5CA9F84]
Трек 2 точное извлечение (доверие 1) [B9671B03]
Трек 3 точное извлечение (доверие 1) [BD867523]
Трек 4 точное извлечение (доверие 1) [9E920D43]
Трек 5 точное извлечение (доверие 1) [BE807BC2]
Трек 6 точное извлечение (доверие 1) [E04D57D5]
Трек 7 точное извлечение (доверие 1) [E456CA8A]
Трек 8 точное извлечение (доверие 1) [03D758FE]
Трек 9 точное извлечение (доверие 1) [D15D9F87]
Трек 10 точное извлечение (доверие 1) [BD53BD3C]
Трек 11 точное извлечение (доверие 1) [CC2E75D0]
Трек 12 точное извлечение (доверие 1) [5E3A420B]
Трек 13 точное извлечение (доверие 1) [C609B08C]
Трек 14 точное извлечение (доверие 1) [C1E452DE]
Трек 15 точное извлечение (доверие 1) [32D1F09F]
Трек 16 точное извлечение (доверие 1) [973CC2BE]
Трек 17 точное извлечение (доверие 1) [2A5D5876]
Трек 18 точное извлечение (доверие 1) [FAB5B00B]
Трек 19 точное извлечение (доверие 1) [E79FC793]
Трек 20 точное извлечение (доверие 1) [A59FE08C]
Трек 21 точное извлечение (доверие 1) [84F162D6]
Трек 22 точное извлечение (доверие 1) [064C7C46]
Трек 23 точное извлечение (доверие 1) [8AE66586]

Все треки извлечены точно

Конец отчёта


Bobby Previte - The 23 Constellations Of Joan Miró (2001) {Tzadik}


Thank you to the original uploader.