Subcategories
Tags
Language
Tags

Boom Bap Project - Reprogram (2005) {Rhymesayers} **[RE-UP]**

Posted By: TestTickles
Boom Bap Project - Reprogram (2005) {Rhymesayers} **[RE-UP]**

Boom Bap Project - Reprogram (2005) {Rhymesayers}
EAC Rip | FLAC with CUE and log | scans | 349 mb
MP3 CBR 320kbps | RAR | 128 mb
Genre: rap, hip-hop

Boom Bap Project were a hip-hop group from Seattle, Washington. Reprogram was their second disc, their first and only project for Rhymesayers.

Boom Bap Project - Reprogram (2005) {Rhymesayers} **[RE-UP]**

1. Resurrected (1:03)
2. Welcome To Seattle (3:54)
3. 1,2,3,4 (4:12)
4. Wyle Out (3:45)
5. Get Up, Get Up (4:17)
6. Tha Label Guy (Skit) (2:05)
7. Followin' Formulas (4:35)
8. Rock The Spot (6:17)
9. Cut Down Ya Options (3:59)
10. The Back Bone Of Hip Hop (2:24)
11. Sho Shot (3:34)
12. Ammunition (4:18)
13. Reprogram (5:30)
14. War Of The Roses (3:49)
15. Sounds Of The Street (Bonus Track) (3:20)

Exact Audio Copy V1.6 from 23. October 2020

EAC extraction logfile from 14. June 2021, 20:24

Boom Bap Project / Reprogram

Used drive : HL-DT-STDVD+-RW GT32N Adapter: 1 ID: 0

Read mode : Burst

Read offset correction : 103
Overread into Lead-In and Lead-Out : No
Fill up missing offset samples with silence : Yes
Delete leading and trailing silent blocks : No
Null samples used in CRC calculations : Yes
Used interface : Native Win32 interface for Win NT & 2000
Gap handling : Not detected, thus appended to previous track

Used output format : Internal WAV Routines
Sample format : 44.100 Hz; 16 Bit; Stereo


TOC of the extracted CD

Track | Start | Length | Start sector | End sector
––––––––––––––––––––––––––––-
1 | 0:00.00 | 1:03.20 | 0 | 4744
2 | 1:03.20 | 3:54.02 | 4745 | 22296
3 | 4:57.22 | 4:11.70 | 22297 | 41191
4 | 9:09.17 | 3:44.21 | 41192 | 58012
5 | 12:53.38 | 4:16.66 | 58013 | 77278
6 | 17:10.29 | 2:05.15 | 77279 | 86668
7 | 19:15.44 | 4:34.23 | 86669 | 107241
8 | 23:49.67 | 6:16.62 | 107242 | 135503
9 | 30:06.54 | 3:58.54 | 135504 | 153407
10 | 34:05.33 | 2:24.37 | 153408 | 164244
11 | 36:29.70 | 3:33.67 | 164245 | 180286
12 | 40:03.62 | 4:18.06 | 180287 | 199642
13 | 44:21.68 | 5:29.33 | 199643 | 224350
14 | 49:51.26 | 3:44.68 | 224351 | 241218
15 | 53:36.19 | 3:20.22 | 241219 | 256240


Track 1

Filename C:\cuntfist\FLAC\Boom Bap Project - Reprogram (2005) [FLAC] {Rhymesayers}\01 - Resurrected.wav

Peak level 100.0 %
Extraction speed 4.4 X
Test CRC DA5A880D
Copy CRC DA5A880D
Accurately ripped (confidence 2) [235C36FD] (AR v2)
Copy OK

Track 2

Filename C:\cuntfist\FLAC\Boom Bap Project - Reprogram (2005) [FLAC] {Rhymesayers}\02 - Welcome To Seattle.wav

Timing problem 0:00:24

Peak level 100.0 %
Extraction speed 4.6 X
Test CRC AAAF7518
Copy CRC AAAF7518
Accurately ripped (confidence 2) [0189EBE1] (AR v2)
Copy finished

Track 3

Filename C:\cuntfist\FLAC\Boom Bap Project - Reprogram (2005) [FLAC] {Rhymesayers}\03 - 1,2,3,4.wav

Peak level 98.8 %
Extraction speed 5.3 X
Test CRC 8F394D1E
Copy CRC 8F394D1E
Accurately ripped (confidence 2) [83BE7881] (AR v2)
Copy OK

Track 4

Filename C:\cuntfist\FLAC\Boom Bap Project - Reprogram (2005) [FLAC] {Rhymesayers}\04 - Wyle Out.wav

Peak level 100.0 %
Extraction speed 5.7 X
Test CRC 847759CB
Copy CRC 847759CB
Accurately ripped (confidence 2) [FD735702] (AR v2)
Copy OK

Track 5

Filename C:\cuntfist\FLAC\Boom Bap Project - Reprogram (2005) [FLAC] {Rhymesayers}\05 - Get Up, Get Up.wav

Peak level 98.5 %
Extraction speed 6.0 X
Test CRC DB689531
Copy CRC DB689531
Accurately ripped (confidence 2) [185DCCDB] (AR v2)
Copy OK

Track 6

Filename C:\cuntfist\FLAC\Boom Bap Project - Reprogram (2005) [FLAC] {Rhymesayers}\06 - Tha Label Guy (Skit).wav

Peak level 95.7 %
Extraction speed 6.6 X
Test CRC 38BF21E2
Copy CRC 38BF21E2
Accurately ripped (confidence 2) [DF82FAA9] (AR v2)
Copy OK

Track 7

Filename C:\cuntfist\FLAC\Boom Bap Project - Reprogram (2005) [FLAC] {Rhymesayers}\07 - Followin' Formulas.wav

Peak level 98.0 %
Extraction speed 6.9 X
Test CRC BFD0966A
Copy CRC BFD0966A
Accurately ripped (confidence 2) [4A2DEF4D] (AR v2)
Copy OK

Track 8

Filename C:\cuntfist\FLAC\Boom Bap Project - Reprogram (2005) [FLAC] {Rhymesayers}\08 - Rock The Spot.wav

Peak level 99.8 %
Extraction speed 7.3 X
Test CRC 9231992C
Copy CRC 9231992C
Accurately ripped (confidence 2) [D25B7FED] (AR v2)
Copy OK

Track 9

Filename C:\cuntfist\FLAC\Boom Bap Project - Reprogram (2005) [FLAC] {Rhymesayers}\09 - Cut Down Ya Options.wav

Peak level 99.3 %
Extraction speed 7.5 X
Test CRC 62CA6B0D
Copy CRC 62CA6B0D
Accurately ripped (confidence 2) [FCBFC9AE] (AR v2)
Copy OK

Track 10

Filename C:\cuntfist\FLAC\Boom Bap Project - Reprogram (2005) [FLAC] {Rhymesayers}\10 - The Back Bone Of Hip-Hop.wav

Peak level 100.0 %
Extraction speed 8.1 X
Test CRC 2BED2799
Copy CRC 2BED2799
Accurately ripped (confidence 2) [8C8E0208] (AR v2)
Copy OK

Track 11

Filename C:\cuntfist\FLAC\Boom Bap Project - Reprogram (2005) [FLAC] {Rhymesayers}\11 - Sho Shot.wav

Peak level 100.0 %
Extraction speed 8.3 X
Test CRC 198D28C9
Copy CRC 198D28C9
Accurately ripped (confidence 2) [4CA58DD3] (AR v2)
Copy OK

Track 12

Filename C:\cuntfist\FLAC\Boom Bap Project - Reprogram (2005) [FLAC] {Rhymesayers}\12 - Ammunition.wav

Peak level 98.5 %
Extraction speed 8.4 X
Test CRC 47A112EE
Copy CRC 47A112EE
Accurately ripped (confidence 2) [731C8514] (AR v2)
Copy OK

Track 13

Filename C:\cuntfist\FLAC\Boom Bap Project - Reprogram (2005) [FLAC] {Rhymesayers}\13 - Reprogram.wav

Peak level 100.0 %
Extraction speed 8.7 X
Test CRC 99C8343F
Copy CRC 99C8343F
Accurately ripped (confidence 1) [25D45BFB] (AR v2)
Copy OK

Track 14

Filename C:\cuntfist\FLAC\Boom Bap Project - Reprogram (2005) [FLAC] {Rhymesayers}\14 - War Of The Roses.wav

Peak level 100.0 %
Extraction speed 9.3 X
Test CRC 9A5D5372
Copy CRC 9A5D5372
Accurately ripped (confidence 2) [1A9FA3BF] (AR v2)
Copy OK

Track 15

Filename C:\cuntfist\FLAC\Boom Bap Project - Reprogram (2005) [FLAC] {Rhymesayers}\15 - Sounds Of The Street (Bonus Track).wav

Peak level 100.0 %
Extraction speed 9.6 X
Test CRC 48FA79B9
Copy CRC 48FA79B9
Accurately ripped (confidence 1) [5E180FA1] (AR v2)
Copy OK


All tracks accurately ripped

No errors occurred

End of status report

–– CUETools DB Plugin V2.1.6

[CTDB TOCID: CKlliiWSABj5Sze_3Q4aNsmCfN4-] found
Submit result: CKlliiWSABj5Sze_3Q4aNsmCfN4- has been confirmed
Track | CTDB Status
1 | (2/2) Accurately ripped
2 | (2/2) Accurately ripped
3 | (2/2) Accurately ripped
4 | (2/2) Accurately ripped
5 | (2/2) Accurately ripped
6 | (2/2) Accurately ripped
7 | (2/2) Accurately ripped
8 | (2/2) Accurately ripped
9 | (2/2) Accurately ripped
10 | (2/2) Accurately ripped
11 | (2/2) Accurately ripped
12 | (2/2) Accurately ripped
13 | (2/2) Accurately ripped
14 | (2/2) Accurately ripped
15 | (2/2) Accurately ripped


==== Log checksum 4D5F5FA1B382CE6059E18AC93DA6F22C988227D6ED5A4540B83A2E8A87E13342 ====


Boom Bap Project - Reprogram (2005) {Rhymesayers} **[RE-UP]**