Subcategories

Bow Wow - The Price Of Fame (2006) **[RE-UP]**

Posted By: TestTickles
Bow Wow - The Price Of Fame (2006) **[RE-UP]**

Bow Wow - The Price Of Fame (2006)
EAC Rip | FLAC with CUE and log | scans | 351 mb
MP3 CBR 320kbps | RAR | 150 mb
Genre: hip-hop, rap

The Price of Fame is the 2006 CD (his fifth) by Shad Moss, better known under the pseudonym Bow Wow. Not a singer who does music for dogs, he is a rapper. The Price of Fame was released on 19 December, 2006.

Bow Wow's 2006 effort was supposed to be his "edgy" album and according to the man himself in pre-release interviews, maybe his last album, but on the title cut he declares he'll stay with game because he's "addicted to the cream." This is just one example of the identity crisis The Price of Fame suffers from since it isn't really "edgy" either. There are hardcore poses, somewhat sensual tracks that might have mom and dad running into the room, and a couple thug songs that paint the star of Like Mike as a real G. Still, even if there's a guest artist by the name of Cocaine J, all of the hard stuff is undermined by pulled punches and editing of the cuss words when there's no "Parental Advisory" version available. The Price of Fame can't decide if it wants to be the now-19-year-old Bow Wow's first street record or last teen record – the same straddling as found on his much better, 2005 effort Wanted – but it also tries to jump on the Southern hip-hop bandwagon with the tired "4 Corners" which features some seriously thin beats and scratching. Saving the album from being a disaster are two perfectly acceptable singles; "Shortie Like Mine" which swaggers with a great hook, and the bonus cut "I'm a Flirt" with R. Kelly and Bow Weezy jackin' for chicks." Running a close third is the soul-searching "Tell Me" which is a good argument Bow Wow is ready to take on more mature material and might even come up with something astonishing. Mentor Jermaine Dupri's beats are just so-so on the abundant filler and the guest artists – Lil Wayne, Pimp C, Chris Brown, and so on – don't really offer anything substantial, so if you don't have a poster of Bow Wow in your locker, check the singles and skip the album.

Bow Wow - The Price Of Fame (2006) **[RE-UP]**

01. Intro
02. Price Of Fame
03. 4 Corners
04. Outta My System
05. How You Move It
06. Shortie Like Mine
07. Don't Know About That
08. Tell Me
09. Damn Thing
10. Bet That
11. On Fiya
12. Give It To You
13. I'm A Flirt
–-
Track 1 created by John Horesco IV
Track 2, 12 produced by Lil' Ronnie & Bow Wow
Track 3, 4 produced by Jermaine Dupri, co-produced by No I.D. & LRoc
Track 5, 8, 9, 10 produced by Jermaine Dupri, co-produced by LRoc
Track 6 produced by Jermaine Dupri, co-produced by Brian Michael Cox
Track 7 produced by Nitti & Jermaine Dupri
Track 11 produced and recorded by Free Agentz

Mastered by Vlado Meller at Sony Music Studios, NYC

EAC extraction logfile from 22. September 2006, 19:45 for CD
Bow Wow / The Price Of Fame

Used drive : LITE-ON DVDRW SOHW-1633S Adapter: 0 ID: 0
Read mode : Secure with NO C2, accurate stream, disable cache
Read offset correction : 12
Overread into Lead-In and Lead-Out : No

Used output format : Internal WAV Routines
44.100 Hz; 16 Bit; Stereo

Other options :
Fill up missing offset samples with silence : Yes
Delete leading and trailing silent blocks : No
Installed external ASPI interface


Track 1
Filename D:\FLAC\Bow Wow - The Price Of Fame (2006) [FLAC]\01 - Intro.wav

Pre-gap length 0:00:02.00

Peak level 96.5 %
Track quality 100.0 %
Test CRC 4EAFD5C9
Copy CRC 4EAFD5C9
Copy OK

Track 2
Filename D:\FLAC\Bow Wow - The Price Of Fame (2006) [FLAC]\02 - Price Of Fame.wav

Peak level 98.8 %
Track quality 100.0 %
Test CRC 5035C32B
Copy CRC 5035C32B
Copy OK

Track 3
Filename D:\FLAC\Bow Wow - The Price Of Fame (2006) [FLAC]\03 - 4 Corners.wav

Peak level 98.8 %
Track quality 100.0 %
Test CRC B0F49EC5
Copy CRC B0F49EC5
Copy OK

Track 4
Filename D:\FLAC\Bow Wow - The Price Of Fame (2006) [FLAC]\04 - Outta My System.wav

Peak level 98.8 %
Track quality 100.0 %
Test CRC 87098A72
Copy CRC 87098A72
Copy OK

Track 5
Filename D:\FLAC\Bow Wow - The Price Of Fame (2006) [FLAC]\05 - How You Move It.wav

Peak level 98.8 %
Track quality 99.9 %
Test CRC B83C042A
Copy CRC B83C042A
Copy OK

Track 6
Filename D:\FLAC\Bow Wow - The Price Of Fame (2006) [FLAC]\06 - Shortie Like Mine.wav

Peak level 100.0 %
Track quality 100.0 %
Test CRC 2396ADF2
Copy CRC 2396ADF2
Copy OK

Track 7
Filename D:\FLAC\Bow Wow - The Price Of Fame (2006) [FLAC]\07 - Don't Know About That.wav

Peak level 100.0 %
Track quality 100.0 %
Test CRC 0C076069
Copy CRC 0C076069
Copy OK

Track 8
Filename D:\FLAC\Bow Wow - The Price Of Fame (2006) [FLAC]\08 - Tell Me.wav

Peak level 98.8 %
Track quality 100.0 %
Test CRC 85D1336E
Copy CRC 85D1336E
Copy OK

Track 9
Filename D:\FLAC\Bow Wow - The Price Of Fame (2006) [FLAC]\09 - Damn Thing.wav

Peak level 97.7 %
Track quality 100.0 %
Test CRC 580EF845
Copy CRC 580EF845
Copy OK

Track 10
Filename D:\FLAC\Bow Wow - The Price Of Fame (2006) [FLAC]\10 - Bet That.wav

Peak level 93.7 %
Track quality 100.0 %
Test CRC C9C59AD2
Copy CRC C9C59AD2
Copy OK

Track 11
Filename D:\FLAC\Bow Wow - The Price Of Fame (2006) [FLAC]\11 - On Fiya.wav

Peak level 98.7 %
Track quality 99.9 %
Test CRC D63654EB
Copy CRC D63654EB
Copy OK

Track 12
Filename D:\FLAC\Bow Wow - The Price Of Fame (2006) [FLAC]\12 - Give It To You.wav

Peak level 93.3 %
Track quality 100.0 %
Test CRC 22A6C215
Copy CRC 22A6C215
Copy OK

Track 13
Filename D:\FLAC\Bow Wow - The Price Of Fame (2006) [FLAC]\13 - I'm A Flirt.wav

Pre-gap length 0:00:00.33

Peak level 100.0 %
Track quality 100.0 %
Test CRC 2B80AAF7
Copy CRC 2B80AAF7
Copy OK

No errors occured


End of status report


Bow Wow - The Price Of Fame (2006) **[RE-UP]**