Subcategories

VA - Best Of The 90s (2CD) (2016) {Polystar/Universal Germany}

Posted By: TestTickles
VA - Best Of The 90s (2CD) (2016) {Polystar/Universal Germany}

VA - Best Of The 90s (2CD) (2016) {Polystar/Universal Germany}
EAC Rip | FLAC with CUE and log | scans | 1.23 gb
MP3 CBR 320kbps | RAR | 401 mb
Genre: soft rock, synth pop, R&B, soul, modern pop, reggae, pop country

Best Of The 90s is a 2CD compilation of what is considered by some to be the last decade of greatness in popular music. This was released by Polystar in association with Universal Germany.

VA - Best Of The 90s (2CD) (2016) {Polystar/Universal Germany}

DISC 1
01. Freddie Mercury - Living On My Own
02. Ace Of Base - All That She Wants (Remastered Version)
03. Michael Jackson - They Don't Care About Us
04. Crazy Town - Butterfly
05. Hanson - MMMbop (Album Version)
06. Fool's Garden - Lemon Tree
07. Sheryl Crow - All I Wanna Do (Album Version)
08. Jennifer Paige - Crush
09. The Cardigans - Lovefool (Radio Edit)
10. Sixpence None The Richer - Kiss Me (Radio Edit)
11. TLC - Waterfalls (Single Edit)
12. Backstreet Boys - I Want It That Way
13. Take That - Back For Good (Radio Mix)
14. *NSync - Tearin' Up My Heart (Radio Edit)
15. East 17 - It's Alright (The Guvnor Mix)
16. Nick Kamen - I Promised Myself
17. Adamski featuring Seal - Killer
18. Wes - Alane (Radio Version)
19. Moloko - Sing It Back (Boris Musical Mix Edit)
20. UB40 - (I Can't Help) Falling In Love With You
21. Kate Yanai - Summer Dreamin'

DISC 2
01. Robbie Williams - Angels
02. Roxette - It Must Have Been Love
03. Zucchero featuring Paul Young - Senza Una Donna
04. Oasis - Wonderwall
05. Radiohead - Creep
06. Sinead O'Connor - Nothing Compares 2 U
07. The Cranberries - Zombie (Album Version)
08. 4 Non Blondes - What's Up (Album Version)
09. Liquido - Narcotic (Radio Edit)
10. Lenny Kravitz - Fly Away
11. Spin Doctors - Two Princes (Album Version)
12. The Cure - Friday I'm In Love (Album Version)
13. Texas - Summer Son
14. Shania Twain - That Don't Impress Me Much
15. Natalie Imbruglia - Torn
16. Meredith Brooks - Bitch
17. Mr. Big - To Be With You (LP Version)
18. Soul Asylum - Runaway Train (Album Version)
19. Ronan Keating - When You Say Nothing At All

Exact Audio Copy V1.1 from 23. June 2015

EAC extraction logfile from 1. March 2016, 22:02

Various Artists / Best Of The 90s (Disc 1)

Used drive : PLEXTOR DVDR PX-891SA Adapter: 1 ID: 1

Read mode : Secure
Utilize accurate stream : Yes
Defeat audio cache : Yes
Make use of C2 pointers : No

Read offset correction : 6
Overread into Lead-In and Lead-Out : No
Fill up missing offset samples with silence : Yes
Delete leading and trailing silent blocks : No
Null samples used in CRC calculations : Yes
Used interface : Native Win32 interface for Win NT & 2000
Gap handling : Appended to previous track

Used output format : User Defined Encoder
Selected bitrate : 1024 kBit/s
Quality : High
Add ID3 tag : No
Command line compressor : C:\Program Files (x86)\Exact Audio Copy\Flac\flac.exe
Additional command line options : -0 -V -T "ARTIST=%artist%" -T "TITLE=%title%" -T "ALBUM=%albumtitle%" -T "DATE=%year%" -T "TRACKNUMBER=%tracknr%" -T "TOTALTRACKS=%numtracks%" -T "GENRE=%genre%" -T "COMMENT=Naftamusic Release!" %source%


TOC of the extracted CD

Track | Start | Length | Start sector | End sector
––––––––––––––––––––––––––––-
1 | 0:00.00 | 3:38.15 | 0 | 16364
2 | 3:38.15 | 3:26.71 | 16365 | 31885
3 | 7:05.11 | 4:45.15 | 31886 | 53275
4 | 11:50.26 | 3:33.32 | 53276 | 69282
5 | 15:23.58 | 4:28.24 | 69283 | 89406
6 | 19:52.07 | 3:11.25 | 89407 | 103756
7 | 23:03.32 | 4:32.39 | 103757 | 124195
8 | 27:35.71 | 3:16.46 | 124196 | 138941
9 | 30:52.42 | 3:16.62 | 138942 | 153703
10 | 34:09.29 | 3:27.02 | 153704 | 169230
11 | 37:36.31 | 4:11.17 | 169231 | 188072
12 | 41:47.48 | 3:32.04 | 188073 | 203976
13 | 45:19.52 | 3:58.72 | 203977 | 221898
14 | 49:18.49 | 3:29.07 | 221899 | 237580
15 | 52:47.56 | 4:38.27 | 237581 | 258457
16 | 57:26.08 | 3:47.63 | 258458 | 275545
17 | 61:13.71 | 4:12.17 | 275546 | 294462
18 | 65:26.13 | 3:40.45 | 294463 | 311007
19 | 69:06.58 | 4:39.01 | 311008 | 331933
20 | 73:45.59 | 3:24.60 | 331934 | 347293
21 | 77:10.44 | 3:36.18 | 347294 | 363511


Track 1

Filename C:\FLAC\VA - Best Of The 90s (2CD) (2016) [FLAC] {Polystar, Universal Germany}\Disc 1\01 - Freddie Mercury - Living On My Own.wav

Pre-gap length 0:00:02.00

Peak level 99.3 %
Extraction speed 2.1 X
Track quality 100.0 %
Test CRC C0248533
Copy CRC C0248533
Track not present in AccurateRip database
Copy OK

Track 2

Filename C:\FLAC\VA - Best Of The 90s (2CD) (2016) [FLAC] {Polystar, Universal Germany}\Disc 1\02 - Ace Of Base - All That She Wants (Remastered Version).wav

Pre-gap length 0:00:00.40

Peak level 91.2 %
Extraction speed 2.2 X
Track quality 100.0 %
Test CRC 062F2311
Copy CRC 062F2311
Track not present in AccurateRip database
Copy OK

Track 3

Filename C:\FLAC\VA - Best Of The 90s (2CD) (2016) [FLAC] {Polystar, Universal Germany}\Disc 1\03 - Michael Jackson - They Don’t Care About Us.wav

Peak level 99.3 %
Extraction speed 2.0 X
Track quality 99.9 %
Test CRC 56B91A29
Copy CRC 56B91A29
Track not present in AccurateRip database
Copy OK

Track 4

Filename C:\FLAC\VA - Best Of The 90s (2CD) (2016) [FLAC] {Polystar, Universal Germany}\Disc 1\04 - Crazy Town - Butterfly.wav

Pre-gap length 0:00:00.58

Peak level 90.2 %
Extraction speed 1.9 X
Track quality 99.9 %
Test CRC 0BADC5BC
Copy CRC 0BADC5BC
Track not present in AccurateRip database
Copy OK

Track 5

Filename C:\FLAC\VA - Best Of The 90s (2CD) (2016) [FLAC] {Polystar, Universal Germany}\Disc 1\05 - Hanson - MMMbop (Album Version).wav

Pre-gap length 0:00:00.62

Peak level 99.3 %
Extraction speed 2.9 X
Track quality 100.0 %
Test CRC 8DEDAFAA
Copy CRC 8DEDAFAA
Track not present in AccurateRip database
Copy OK

Track 6

Filename C:\FLAC\VA - Best Of The 90s (2CD) (2016) [FLAC] {Polystar, Universal Germany}\Disc 1\06 - Fool’s Garden - Lemon Tree.wav

Pre-gap length 0:00:01.00

Peak level 99.3 %
Extraction speed 2.9 X
Track quality 100.0 %
Test CRC 1632DC98
Copy CRC 1632DC98
Track not present in AccurateRip database
Copy OK

Track 7

Filename C:\FLAC\VA - Best Of The 90s (2CD) (2016) [FLAC] {Polystar, Universal Germany}\Disc 1\07 - Sheryl Crow - All I Wanna Do (Album Version).wav

Pre-gap length 0:00:01.13

Peak level 99.3 %
Extraction speed 3.2 X
Track quality 100.0 %
Test CRC 5E672859
Copy CRC 5E672859
Track not present in AccurateRip database
Copy OK

Track 8

Filename C:\FLAC\VA - Best Of The 90s (2CD) (2016) [FLAC] {Polystar, Universal Germany}\Disc 1\08 - Jennifer Paige - Crush.wav

Peak level 97.4 %
Extraction speed 3.1 X
Track quality 100.0 %
Test CRC BEA7C069
Copy CRC BEA7C069
Track not present in AccurateRip database
Copy OK

Track 9

Filename C:\FLAC\VA - Best Of The 90s (2CD) (2016) [FLAC] {Polystar, Universal Germany}\Disc 1\09 - The Cardigans - Lovefool (Radio Edit).wav

Pre-gap length 0:00:00.66

Peak level 99.3 %
Extraction speed 3.2 X
Track quality 100.0 %
Test CRC 410B5A41
Copy CRC 410B5A41
Track not present in AccurateRip database
Copy OK

Track 10

Filename C:\FLAC\VA - Best Of The 90s (2CD) (2016) [FLAC] {Polystar, Universal Germany}\Disc 1\10 - Sixpence None The Richer - Kiss Me (Radio Edit).wav

Pre-gap length 0:00:00.74

Peak level 99.3 %
Extraction speed 3.3 X
Track quality 100.0 %
Test CRC CE19FDCD
Copy CRC CE19FDCD
Track not present in AccurateRip database
Copy OK

Track 11

Filename C:\FLAC\VA - Best Of The 90s (2CD) (2016) [FLAC] {Polystar, Universal Germany}\Disc 1\11 - TLC - Waterfalls (Single Edit).wav

Pre-gap length 0:00:00.62

Peak level 94.0 %
Extraction speed 3.6 X
Track quality 100.0 %
Test CRC C3259AB2
Copy CRC C3259AB2
Track not present in AccurateRip database
Copy OK

Track 12

Filename C:\FLAC\VA - Best Of The 90s (2CD) (2016) [FLAC] {Polystar, Universal Germany}\Disc 1\12 - Backstreet Boys - I Want It That Way.wav

Peak level 99.3 %
Extraction speed 3.6 X
Track quality 100.0 %
Test CRC 052EEDF0
Copy CRC 052EEDF0
Track not present in AccurateRip database
Copy OK

Track 13

Filename C:\FLAC\VA - Best Of The 90s (2CD) (2016) [FLAC] {Polystar, Universal Germany}\Disc 1\13 - Take That - Back For Good (Radio Mix).wav

Pre-gap length 0:00:00.74

Peak level 99.3 %
Extraction speed 3.8 X
Track quality 100.0 %
Test CRC FCE0FC41
Copy CRC FCE0FC41
Track not present in AccurateRip database
Copy OK

Track 14

Filename C:\FLAC\VA - Best Of The 90s (2CD) (2016) [FLAC] {Polystar, Universal Germany}\Disc 1\14 - ‘N Sync - Tearin’ Up My Heart (Radio Edit).wav

Pre-gap length 0:00:00.67

Peak level 99.3 %
Extraction speed 3.8 X
Track quality 100.0 %
Test CRC 5C1B60E7
Copy CRC 5C1B60E7
Track not present in AccurateRip database
Copy OK

Track 15

Filename C:\FLAC\VA - Best Of The 90s (2CD) (2016) [FLAC] {Polystar, Universal Germany}\Disc 1\15 - East 17 - It’s Alright (The Guvnor Mix).wav

Pre-gap length 0:00:01.06

Peak level 99.3 %
Extraction speed 4.1 X
Track quality 100.0 %
Test CRC 06B5826E
Copy CRC 06B5826E
Track not present in AccurateRip database
Copy OK

Track 16

Filename C:\FLAC\VA - Best Of The 90s (2CD) (2016) [FLAC] {Polystar, Universal Germany}\Disc 1\16 - Nick Kamen - I Promised Myself.wav

Peak level 99.3 %
Extraction speed 4.0 X
Track quality 100.0 %
Test CRC 9E57CF6F
Copy CRC 9E57CF6F
Track not present in AccurateRip database
Copy OK

Track 17

Filename C:\FLAC\VA - Best Of The 90s (2CD) (2016) [FLAC] {Polystar, Universal Germany}\Disc 1\17 - Adamski Feat. Seal - Killer.wav

Peak level 99.3 %
Extraction speed 4.3 X
Track quality 100.0 %
Test CRC F23FCA9B
Copy CRC F23FCA9B
Track not present in AccurateRip database
Copy OK

Track 18

Filename C:\FLAC\VA - Best Of The 90s (2CD) (2016) [FLAC] {Polystar, Universal Germany}\Disc 1\18 - Wes - Alane (Radio Version).wav

Pre-gap length 0:00:01.04

Peak level 99.3 %
Extraction speed 4.2 X
Track quality 100.0 %
Test CRC 41A6E3E3
Copy CRC 41A6E3E3
Track not present in AccurateRip database
Copy OK

Track 19

Filename C:\FLAC\VA - Best Of The 90s (2CD) (2016) [FLAC] {Polystar, Universal Germany}\Disc 1\19 - Moloko - Sing It Back (Boris Musical Mix Edit).wav

Pre-gap length 0:00:00.53

Peak level 99.3 %
Extraction speed 4.5 X
Track quality 100.0 %
Test CRC 1A44FA29
Copy CRC 1A44FA29
Track not present in AccurateRip database
Copy OK

Track 20

Filename C:\FLAC\VA - Best Of The 90s (2CD) (2016) [FLAC] {Polystar, Universal Germany}\Disc 1\20 - UB40 - (I Can’t Help) Falling In Love With You.wav

Pre-gap length 0:00:00.71

Peak level 99.3 %
Extraction speed 4.3 X
Track quality 100.0 %
Test CRC F22D1998
Copy CRC F22D1998
Track not present in AccurateRip database
Copy OK

Track 21

Filename C:\FLAC\VA - Best Of The 90s (2CD) (2016) [FLAC] {Polystar, Universal Germany}\Disc 1\21 - Kate Yanai - Summer Dreamin’.wav

Pre-gap length 0:00:01.06

Peak level 95.0 %
Extraction speed 4.5 X
Track quality 100.0 %
Test CRC AFFC4899
Copy CRC AFFC4899
Track not present in AccurateRip database
Copy OK


None of the tracks are present in the AccurateRip database

No errors occurred

End of status report

==== Log checksum A4C2A4F67213C87FF5A760FC105A596EB8BA5F7A9365A235E48F3CC841D3BD76 ====







Exact Audio Copy V1.1 from 23. June 2015

EAC extraction logfile from 1. March 2016, 23:15

Various Artists / Best Of The 90s (Disc 2)

Used drive : PLEXTOR DVDR PX-891SA Adapter: 1 ID: 1

Read mode : Secure
Utilize accurate stream : Yes
Defeat audio cache : Yes
Make use of C2 pointers : No

Read offset correction : 6
Overread into Lead-In and Lead-Out : No
Fill up missing offset samples with silence : Yes
Delete leading and trailing silent blocks : No
Null samples used in CRC calculations : Yes
Used interface : Native Win32 interface for Win NT & 2000
Gap handling : Appended to previous track

Used output format : User Defined Encoder
Selected bitrate : 1024 kBit/s
Quality : High
Add ID3 tag : No
Command line compressor : C:\Program Files (x86)\Exact Audio Copy\Flac\flac.exe
Additional command line options : -0 -V -T "ARTIST=%artist%" -T "TITLE=%title%" -T "ALBUM=%albumtitle%" -T "DATE=%year%" -T "TRACKNUMBER=%tracknr%" -T "TOTALTRACKS=%numtracks%" -T "GENRE=%genre%" -T "COMMENT=Naftamusic Release!" %source%


TOC of the extracted CD

Track | Start | Length | Start sector | End sector
––––––––––––––––––––––––––––-
1 | 0:00.00 | 4:25.62 | 0 | 19936
2 | 4:25.62 | 4:18.09 | 19937 | 39295
3 | 8:43.71 | 4:27.29 | 39296 | 59349
4 | 13:11.25 | 4:15.31 | 59350 | 78505
5 | 17:26.56 | 3:56.49 | 78506 | 96254
6 | 21:23.30 | 5:04.03 | 96255 | 119057
7 | 26:27.33 | 5:06.72 | 119058 | 142079
8 | 31:34.30 | 4:52.14 | 142080 | 163993
9 | 36:26.44 | 3:53.28 | 163994 | 181496
10 | 40:19.72 | 3:41.59 | 181497 | 198130
11 | 44:01.56 | 4:14.16 | 198131 | 217196
12 | 48:15.72 | 3:33.37 | 217197 | 233208
13 | 51:49.34 | 4:01.72 | 233209 | 251355
14 | 55:51.31 | 3:57.06 | 251356 | 269136
15 | 59:48.37 | 4:03.55 | 269137 | 287416
16 | 63:52.17 | 4:10.44 | 287417 | 306210
17 | 68:02.61 | 3:27.20 | 306211 | 321755
18 | 71:30.06 | 4:22.29 | 321756 | 341434
19 | 75:52.35 | 4:15.48 | 341435 | 360607


Track 1

Filename C:\FLAC\VA - Best Of The 90s (2CD) (2016) [FLAC] {Polystar, Universal Germany}\Disc 2\01 - Robbie Williams - Angels.wav

Pre-gap length 0:00:02.00

Peak level 99.3 %
Extraction speed 2.2 X
Track quality 100.0 %
Test CRC 72BA402E
Copy CRC 72BA402E
Track not present in AccurateRip database
Copy OK

Track 2

Filename C:\FLAC\VA - Best Of The 90s (2CD) (2016) [FLAC] {Polystar, Universal Germany}\Disc 2\02 - Roxette - It Must Have Been Love.wav

Pre-gap length 0:00:00.67

Peak level 99.3 %
Extraction speed 2.4 X
Track quality 100.0 %
Test CRC F7FC5052
Copy CRC F7FC5052
Track not present in AccurateRip database
Copy OK

Track 3

Filename C:\FLAC\VA - Best Of The 90s (2CD) (2016) [FLAC] {Polystar, Universal Germany}\Disc 2\03 - Zucchero Feat. Paul Young - Senza Una Donna.wav

Pre-gap length 0:00:01.17

Peak level 99.3 %
Extraction speed 2.6 X
Track quality 100.0 %
Test CRC 6B4F4231
Copy CRC 6B4F4231
Track not present in AccurateRip database
Copy OK

Track 4

Filename C:\FLAC\VA - Best Of The 90s (2CD) (2016) [FLAC] {Polystar, Universal Germany}\Disc 2\04 - Oasis - Wonderwall.wav

Pre-gap length 0:00:01.09

Peak level 97.0 %
Extraction speed 2.8 X
Track quality 100.0 %
Test CRC B6BE645C
Copy CRC B6BE645C
Track not present in AccurateRip database
Copy OK

Track 5

Filename C:\FLAC\VA - Best Of The 90s (2CD) (2016) [FLAC] {Polystar, Universal Germany}\Disc 2\05 - Radiohead - Creep.wav

Pre-gap length 0:00:01.12

Peak level 99.3 %
Extraction speed 2.9 X
Track quality 100.0 %
Test CRC E05666F2
Copy CRC E05666F2
Track not present in AccurateRip database
Copy OK

Track 6

Filename C:\FLAC\VA - Best Of The 90s (2CD) (2016) [FLAC] {Polystar, Universal Germany}\Disc 2\06 - Sinéad O'Connor - Nothing Compares 2 U.wav

Pre-gap length 0:00:01.06

Peak level 99.3 %
Extraction speed 3.2 X
Track quality 100.0 %
Test CRC 15F804C3
Copy CRC 15F804C3
Track not present in AccurateRip database
Copy OK

Track 7

Filename C:\FLAC\VA - Best Of The 90s (2CD) (2016) [FLAC] {Polystar, Universal Germany}\Disc 2\07 - The Cranberries - Zombie (Album Version).wav

Peak level 99.3 %
Extraction speed 3.3 X
Track quality 100.0 %
Test CRC CE341B57
Copy CRC CE341B57
Track not present in AccurateRip database
Copy OK

Track 8

Filename C:\FLAC\VA - Best Of The 90s (2CD) (2016) [FLAC] {Polystar, Universal Germany}\Disc 2\08 - 4 Non Blondes - What’s Up (Album Version).wav

Pre-gap length 0:00:00.37

Peak level 99.3 %
Extraction speed 3.5 X
Track quality 100.0 %
Test CRC 319933E9
Copy CRC 319933E9
Track not present in AccurateRip database
Copy OK

Track 9

Filename C:\FLAC\VA - Best Of The 90s (2CD) (2016) [FLAC] {Polystar, Universal Germany}\Disc 2\09 - Liquido - Narcotic (Radio Edit).wav

Peak level 99.3 %
Extraction speed 2.5 X
Track quality 99.9 %
Test CRC 0A9F28A9
Copy CRC 0A9F28A9
Track not present in AccurateRip database
Copy OK

Track 10

Filename C:\FLAC\VA - Best Of The 90s (2CD) (2016) [FLAC] {Polystar, Universal Germany}\Disc 2\10 - Lenny Kravitz - Fly Away.wav

Pre-gap length 0:00:01.06

Peak level 99.2 %
Extraction speed 2.6 X
Track quality 99.9 %
Test CRC B66460E3
Copy CRC B66460E3
Track not present in AccurateRip database
Copy OK

Track 11

Filename C:\FLAC\VA - Best Of The 90s (2CD) (2016) [FLAC] {Polystar, Universal Germany}\Disc 2\11 - Spin Doctors - Two Princes (Album Version).wav

Pre-gap length 0:00:01.05

Peak level 99.3 %
Extraction speed 3.8 X
Track quality 100.0 %
Test CRC AFA02896
Copy CRC AFA02896
Track not present in AccurateRip database
Copy OK

Track 12

Filename C:\FLAC\VA - Best Of The 90s (2CD) (2016) [FLAC] {Polystar, Universal Germany}\Disc 2\12 - The Cure - Friday I’m In Love (Album Version).wav

Pre-gap length 0:00:00.71

Peak level 93.6 %
Extraction speed 3.7 X
Track quality 100.0 %
Test CRC D41B2DE5
Copy CRC D41B2DE5
Track not present in AccurateRip database
Copy OK

Track 13

Filename C:\FLAC\VA - Best Of The 90s (2CD) (2016) [FLAC] {Polystar, Universal Germany}\Disc 2\13 - Texas - Summer Son.wav

Pre-gap length 0:00:01.12

Peak level 99.3 %
Extraction speed 4.0 X
Track quality 100.0 %
Test CRC 4ADD4251
Copy CRC 4ADD4251
Track not present in AccurateRip database
Copy OK

Track 14

Filename C:\FLAC\VA - Best Of The 90s (2CD) (2016) [FLAC] {Polystar, Universal Germany}\Disc 2\14 - Shania Twain - That Don’t Impress Me Much.wav

Pre-gap length 0:00:00.73

Peak level 88.4 %
Extraction speed 4.0 X
Track quality 100.0 %
Test CRC 736A17C5
Copy CRC 736A17C5
Track not present in AccurateRip database
Copy OK

Track 15

Filename C:\FLAC\VA - Best Of The 90s (2CD) (2016) [FLAC] {Polystar, Universal Germany}\Disc 2\15 - Natalie Imbruglia - Torn.wav

Pre-gap length 0:00:01.29

Peak level 95.0 %
Extraction speed 4.2 X
Track quality 100.0 %
Test CRC E7795C2B
Copy CRC E7795C2B
Track not present in AccurateRip database
Copy OK

Track 16

Filename C:\FLAC\VA - Best Of The 90s (2CD) (2016) [FLAC] {Polystar, Universal Germany}\Disc 2\16 - Meredith Brooks - Bitch.wav

Peak level 99.3 %
Extraction speed 4.3 X
Track quality 100.0 %
Test CRC 71AF61FA
Copy CRC 71AF61FA
Track not present in AccurateRip database
Copy OK

Track 17

Filename C:\FLAC\VA - Best Of The 90s (2CD) (2016) [FLAC] {Polystar, Universal Germany}\Disc 2\17 - Mr. Big - To Be With You (LP Version).wav

Peak level 99.3 %
Extraction speed 4.2 X
Track quality 100.0 %
Test CRC B824861E
Copy CRC B824861E
Track not present in AccurateRip database
Copy OK

Track 18

Filename C:\FLAC\VA - Best Of The 90s (2CD) (2016) [FLAC] {Polystar, Universal Germany}\Disc 2\18 - Soul Asylum - Runaway Train (Album Version).wav

Pre-gap length 0:00:01.05

Peak level 96.5 %
Extraction speed 4.5 X
Track quality 100.0 %
Test CRC 95B859CE
Copy CRC 95B859CE
Track not present in AccurateRip database
Copy OK

Track 19

Filename C:\FLAC\VA - Best Of The 90s (2CD) (2016) [FLAC] {Polystar, Universal Germany}\Disc 2\19 - Ronan Keating - When You Say Nothing At All.wav

Pre-gap length 0:00:01.23

Peak level 99.3 %
Extraction speed 3.3 X
Track quality 99.9 %
Test CRC C2AC4CDD
Copy CRC C2AC4CDD
Track not present in AccurateRip database
Copy OK


None of the tracks are present in the AccurateRip database

No errors occurred

End of status report

==== Log checksum 8CD0E568826872BF9ADFEA01F4EAEE0412540DD9B459FCEF4232584F77B915BA ====


VA - Best Of The 90s (2CD) (2016) {Polystar/Universal Germany}


Thank you to the original uploader