Subcategories

Blackalicious - Nia (2000) {Quannum Projects}

Posted By: TestTickles
Blackalicious - Nia (2000) {Quannum Projects}

Blackalicious - Nia (2000) {Quannum Projects}
EAC Rip | FLAC with CUE and log | scans | 536 mb
MP3 CBR 320kbps | RAR | 255 mb
Genre: hip-hop, rap

Nia is the 2002 debut album from Sacramento hip-hop dio Blackalicious. This was released by Quannum Projects, their collective which also features DJ Shadow, Lateef The Truth Speaker, and Lyrics Born.

Blackalicious - Nia (2000) {Quannum Projects}

01. Searching
02. The Fabulous Ones
03. Do This My Way
04. Deception
05. A To G
06. Cliff Hanger
07. Shallow Days
08. Ego Trip By Nikki Giovanni
09. You Didn't Know That Though
10. If I May
11. Dream Seasons
12. Trouble (Eve Of Destruction)
13. Smithzonian Institue Of Rhyme
14. As The World Turns
15. Reanimation
16. Beyonder
17. Making Progress
18. Sleep
19. Finding

Gift Of Gab-rap
Chief Xcel-DJ, scratches (track 2)

Erinn Anova-vocals (tracks 1, 8, 10 & 14)
DJ Icewater-scratches (track 3)
DJ Quest-scratches (track 12)
Lateef The Truth Speaker-rap (tracks 10 & 13)
Lyrics Born-rap (track 3)
Harley White-bass guitar (track 4)

All tracks produced by Chief Xcel except:
Track 3 produced by Lyrics Born
Track 6 produced by DJ Shadow
Track 10 co-produced by DJ Shadow

Blackalicious - Nia (2000) {Quannum Projects}


Exact Audio Copy V1.0 beta 6 from 9. April 2015

EAC extraction logfile from 12. January 2018, 15:37

Blackalicious / Nia

Used drive : TSSTcorpDVD+-RW TS-L633C Adapter: 1 ID: 0

Read mode : Secure
Utilize accurate stream : Yes
Defeat audio cache : Yes
Make use of C2 pointers : No

Read offset correction : 6
Overread into Lead-In and Lead-Out : No
Fill up missing offset samples with silence : Yes
Delete leading and trailing silent blocks : No
Null samples used in CRC calculations : Yes
Used interface : Native Win32 interface for Win NT & 2000
Gap handling : Appended to previous track

Used output format : Internal WAV Routines
Sample format : 44.100 Hz; 16 Bit; Stereo


TOC of the extracted CD

Track | Start | Length | Start sector | End sector
––––––––––––––––––––––––––––-
1 | 0:00.00 | 1:49.32 | 0 | 8206
2 | 1:49.32 | 3:00.23 | 8207 | 21729
3 | 4:49.55 | 4:49.70 | 21730 | 43474
4 | 9:39.50 | 5:11.57 | 43475 | 66856
5 | 14:51.32 | 2:24.08 | 66857 | 77664
6 | 17:15.40 | 6:21.20 | 77665 | 106259
7 | 23:36.60 | 4:20.62 | 106260 | 125821
8 | 27:57.47 | 1:44.70 | 125822 | 133691
9 | 29:42.42 | 4:35.70 | 133692 | 154386
10 | 34:18.37 | 3:45.55 | 154387 | 171316
11 | 38:04.17 | 4:49.15 | 171317 | 193006
12 | 42:53.32 | 4:28.53 | 193007 | 213159
13 | 47:22.10 | 4:24.42 | 213160 | 233001
14 | 51:46.52 | 5:41.43 | 233002 | 258619
15 | 57:28.20 | 3:38.62 | 258620 | 275031
16 | 61:07.07 | 4:06.43 | 275032 | 293524
17 | 65:13.50 | 3:11.65 | 293525 | 307914
18 | 68:25.40 | 3:54.22 | 307915 | 325486
19 | 72:19.62 | 1:52.13 | 325487 | 333899


Track 1

Filename C:\My Documents\My FLAC\Blackalicious - Nia (2000) [FLAC] {Quannum Projects}\01 - Searching.wav

Pre-gap length 0:00:02.00

Peak level 90.6 %
Extraction speed 1.0 X
Track quality 100.0 %
Test CRC 184D3E2C
Copy CRC 184D3E2C
Accurately ripped (confidence 16) [E06FB9CF] (AR v2)
Copy OK

Track 2

Filename C:\My Documents\My FLAC\Blackalicious - Nia (2000) [FLAC] {Quannum Projects}\02 - The Fabulous Ones.wav

Peak level 99.9 %
Extraction speed 1.2 X
Track quality 100.0 %
Test CRC DE43764E
Copy CRC DE43764E
Accurately ripped (confidence 16) [272419ED] (AR v2)
Copy OK

Track 3

Filename C:\My Documents\My FLAC\Blackalicious - Nia (2000) [FLAC] {Quannum Projects}\03 - Do This My Way.wav

Peak level 93.2 %
Extraction speed 1.4 X
Track quality 100.0 %
Test CRC 74E36497
Copy CRC 74E36497
Accurately ripped (confidence 16) [133F2ECA] (AR v2)
Copy OK

Track 4

Filename C:\My Documents\My FLAC\Blackalicious - Nia (2000) [FLAC] {Quannum Projects}\04 - Deception.wav

Peak level 98.8 %
Extraction speed 1.4 X
Track quality 99.9 %
Test CRC 79358E61
Copy CRC 79358E61
Accurately ripped (confidence 16) [532FE43B] (AR v2)
Copy OK

Track 5

Filename C:\My Documents\My FLAC\Blackalicious - Nia (2000) [FLAC] {Quannum Projects}\05 - A To G.wav

Peak level 96.1 %
Extraction speed 1.2 X
Track quality 99.9 %
Test CRC 25791756
Copy CRC 25791756
Accurately ripped (confidence 16) [4B45358A] (AR v2)
Copy OK

Track 6

Filename C:\My Documents\My FLAC\Blackalicious - Nia (2000) [FLAC] {Quannum Projects}\06 - Cliff Hanger.wav

Peak level 98.1 %
Extraction speed 0.7 X
Track quality 100.0 %
Test CRC A45BDFBF
Copy CRC A45BDFBF
Accurately ripped (confidence 16) [C68F033D] (AR v2)
Copy OK

Track 7

Filename C:\My Documents\My FLAC\Blackalicious - Nia (2000) [FLAC] {Quannum Projects}\07 - Shallow Days.wav

Peak level 94.1 %
Extraction speed 1.8 X
Track quality 100.0 %
Test CRC 87FD6AC4
Copy CRC 87FD6AC4
Accurately ripped (confidence 16) [0AFB51BC] (AR v2)
Copy OK

Track 8

Filename C:\My Documents\My FLAC\Blackalicious - Nia (2000) [FLAC] {Quannum Projects}\08 - Ego Trip By Nikki Giovanni.wav

Peak level 99.3 %
Extraction speed 1.2 X
Track quality 99.8 %
Test CRC 3AAAF9C5
Copy CRC 3AAAF9C5
Accurately ripped (confidence 16) [27E59FD3] (AR v2)
Copy OK

Track 9

Filename C:\My Documents\My FLAC\Blackalicious - Nia (2000) [FLAC] {Quannum Projects}\09 - You Didn't Know That Though.wav

Peak level 93.6 %
Extraction speed 1.9 X
Track quality 100.0 %
Test CRC 4ABC1572
Copy CRC 4ABC1572
Accurately ripped (confidence 16) [4CE709B3] (AR v2)
Copy OK

Track 10

Filename C:\My Documents\My FLAC\Blackalicious - Nia (2000) [FLAC] {Quannum Projects}\10 - If I May.wav

Peak level 100.0 %
Extraction speed 1.7 X
Track quality 99.9 %
Test CRC FDCFD626
Copy CRC FDCFD626
Accurately ripped (confidence 16) [C9CD2109] (AR v2)
Copy OK

Track 11

Filename C:\My Documents\My FLAC\Blackalicious - Nia (2000) [FLAC] {Quannum Projects}\11 - Dream Seasons.wav

Peak level 100.0 %
Extraction speed 2.1 X
Track quality 100.0 %
Test CRC D15BCA5C
Copy CRC D15BCA5C
Accurately ripped (confidence 15) [F406FEE6] (AR v2)
Copy OK

Track 12

Filename C:\My Documents\My FLAC\Blackalicious - Nia (2000) [FLAC] {Quannum Projects}\12 - Trouble (Eve Of Destruction).wav

Peak level 100.0 %
Extraction speed 2.2 X
Track quality 100.0 %
Test CRC D8BAF8C1
Copy CRC D8BAF8C1
Accurately ripped (confidence 16) [E4B911E5] (AR v2)
Copy OK

Track 13

Filename C:\My Documents\My FLAC\Blackalicious - Nia (2000) [FLAC] {Quannum Projects}\13 - Smithzonian Institue Of Rhyme.wav

Peak level 99.9 %
Extraction speed 0.6 X
Track quality 100.0 %
Test CRC 450E7CDE
Copy CRC 450E7CDE
Accurately ripped (confidence 16) [D79C200A] (AR v2)
Copy OK

Track 14

Filename C:\My Documents\My FLAC\Blackalicious - Nia (2000) [FLAC] {Quannum Projects}\14 - As The World Turns.wav

Peak level 99.2 %
Extraction speed 2.4 X
Track quality 100.0 %
Test CRC 9037FE66
Copy CRC 9037FE66
Accurately ripped (confidence 16) [B4A61FCA] (AR v2)
Copy OK

Track 15

Filename C:\My Documents\My FLAC\Blackalicious - Nia (2000) [FLAC] {Quannum Projects}\15 - Reanimation.wav

Peak level 94.4 %
Extraction speed 2.2 X
Track quality 100.0 %
Test CRC 0A7252B6
Copy CRC 0A7252B6
Accurately ripped (confidence 15) [B227657C] (AR v2)
Copy OK

Track 16

Filename C:\My Documents\My FLAC\Blackalicious - Nia (2000) [FLAC] {Quannum Projects}\16 - Beyonder.wav

Peak level 100.0 %
Extraction speed 2.4 X
Track quality 100.0 %
Test CRC 01CADC4A
Copy CRC 01CADC4A
Accurately ripped (confidence 15) [09E00A2F] (AR v2)
Copy OK

Track 17

Filename C:\My Documents\My FLAC\Blackalicious - Nia (2000) [FLAC] {Quannum Projects}\17 - Making Progress.wav

Peak level 97.7 %
Extraction speed 2.1 X
Track quality 99.9 %
Test CRC E8EFCD71
Copy CRC E8EFCD71
Accurately ripped (confidence 15) [765A18BD] (AR v2)
Copy OK

Track 18

Filename C:\My Documents\My FLAC\Blackalicious - Nia (2000) [FLAC] {Quannum Projects}\18 - Sleep.wav

Peak level 89.1 %
Extraction speed 2.4 X
Track quality 100.0 %
Test CRC 6E5030DE
Copy CRC 6E5030DE
Accurately ripped (confidence 13) [4510E35C] (AR v2)
Copy OK

Track 19

Filename C:\My Documents\My FLAC\Blackalicious - Nia (2000) [FLAC] {Quannum Projects}\19 - Finding.wav

Peak level 96.7 %
Extraction speed 2.1 X
Track quality 100.0 %
Test CRC D591B36F
Copy CRC D591B36F
Accurately ripped (confidence 14) [4764CEB0] (AR v2)
Copy OK


All tracks accurately ripped

No errors occurred

End of status report

–– CUETools DB Plugin V2.1.6

[CTDB TOCID: 3Z3yC0znIdEHUH_hkwepRrXBuSI-] found
Submit result: 3Z3yC0znIdEHUH_hkwepRrXBuSI- has been confirmed
Track | CTDB Status
1 | (34/34) Accurately ripped
2 | (34/34) Accurately ripped
3 | (34/34) Accurately ripped
4 | (34/34) Accurately ripped
5 | (34/34) Accurately ripped
6 | (34/34) Accurately ripped
7 | (34/34) Accurately ripped
8 | (34/34) Accurately ripped
9 | (34/34) Accurately ripped
10 | (34/34) Accurately ripped
11 | (34/34) Accurately ripped
12 | (34/34) Accurately ripped
13 | (34/34) Accurately ripped
14 | (32/34) Accurately ripped
15 | (34/34) Accurately ripped
16 | (33/34) Accurately ripped
17 | (33/34) Accurately ripped
18 | (33/34) Accurately ripped
19 | (32/34) Accurately ripped


==== Log checksum B5D1C21F9B1A1B56005DB9C433C77BF0E754F32D8327765D0A3F75E5EA55BD6E ====


Blackalicious - Nia (2000) {Quannum Projects}