Subcategories

Brothers Of The Southland - s/t (2008) {2009 Zoho Roots}

Posted By: TestTickles
Brothers Of The Southland - s/t (2008) {2009 Zoho Roots}

Brothers Of The Southland - s/t (2008) {2009 Zoho Roots}
EAC Rip | FLAC with CUE and log | scans | 491 mb
MP3 CBR 320kbps | RAR | 193 mb
Genre: Southern rock

Brothers Of The Southland is the 2008 self-titled debut album by Brothers Of The Southland. This genuine piece of audio was released by Zoho Roots but was a part of Zoho's regular label series before they decided to promote it a bit better in the Roots division in 2009.

Brothers Of The Southland - s/t (2008) {2009 Zoho Roots}

01. Rock And Roll Survivor
02. Can't You See
03. Brothers Of The Southland
04. Travlin' Light These Days
05. Dreams
06. Blue Sunrise
07. Love Don't Care
08. Dixie Highway
09. Pray For Me
10. Back In The Day
11. Change A Comin'
12. Long Goodbye
13. Can't You See (Radio Edit)

Bo Bice-vocals, guitar
Jimmy Hall-vocals, sax, harmonica
Henry Paul-vocals, guitar, mandolin
Jay Boy Adams-lead guitar
Steve Grisham-guitar, vocals
"Dangerous" Dan Toler-guitar
Mike Brignardello-bass
Steve Gorman-drums

Produced by D. Scott Miller
Recorded, mixed & mastered by Pat Murphy
Additional recording: Steve Crowder. John Saylor, Leslie Richter & Mike Bush

Exact Audio Copy V0.99 prebeta 4 from 23. January 2008

EAC extraction logfile from 7. May 2009, 15:08

Brothers Of The Southland / Brothers Of The Southland

Used drive : TSSTcorpDVD+-RW TS-H653B Adapter: 2 ID: 0

Read mode : Secure
Utilize accurate stream : Yes
Defeat audio cache : Yes
Make use of C2 pointers : No

Read offset correction : 6
Overread into Lead-In and Lead-Out : No
Fill up missing offset samples with silence : Yes
Delete leading and trailing silent blocks : No
Null samples used in CRC calculations : Yes
Used interface : Native Win32 interface for Win NT & 2000
Gap handling : Appended to previous track

Used output format : Internal WAV Routines
Sample format : 44.100 Hz; 16 Bit; Stereo


TOC of the extracted CD

Track | Start | Length | Start sector | End sector
––––––––––––––––––––––––––––-
1 | 0:00.00 | 3:52.03 | 0 | 17402
2 | 3:52.03 | 7:30.20 | 17403 | 51172
3 | 11:22.23 | 6:56.54 | 51173 | 82426
4 | 18:19.02 | 3:45.41 | 82427 | 99342
5 | 22:04.43 | 5:37.64 | 99343 | 124681
6 | 27:42.32 | 3:41.64 | 124682 | 141320
7 | 31:24.21 | 2:54.60 | 141321 | 154430
8 | 34:19.06 | 4:28.05 | 154431 | 174535
9 | 38:47.11 | 3:34.36 | 174536 | 190621
10 | 42:21.47 | 3:52.74 | 190622 | 208095
11 | 46:14.46 | 3:39.20 | 208096 | 224540
12 | 49:53.66 | 5:56.30 | 224541 | 251270
13 | 55:50.21 | 3:57.20 | 251271 | 269065


Track 1

Filename C:\FLAC\Brothers Of The Southland - s-t (2009) [FLAC] {Zoho Roots}\01 - Rock And Roll Survivor.wav

Pre-gap length 0:00:02.00

Peak level 100.0 %
Track quality 100.0 %
Test CRC 3774B0AD
Copy CRC 3774B0AD
Track not present in AccurateRip database
Copy OK

Track 2

Filename C:\FLAC\Brothers Of The Southland - s-t (2009) [FLAC] {Zoho Roots}\02 - Can't You See.wav

Peak level 100.0 %
Track quality 99.9 %
Test CRC 8108A951
Copy CRC 8108A951
Track not present in AccurateRip database
Copy OK

Track 3

Filename C:\FLAC\Brothers Of The Southland - s-t (2009) [FLAC] {Zoho Roots}\03 - Brothers Of The Southland.wav

Peak level 100.0 %
Track quality 99.9 %
Test CRC CD0136A4
Copy CRC CD0136A4
Track not present in AccurateRip database
Copy OK

Track 4

Filename C:\FLAC\Brothers Of The Southland - s-t (2009) [FLAC] {Zoho Roots}\04 - Travlin' Light These Days.wav

Peak level 100.0 %
Track quality 100.0 %
Test CRC 5850AE97
Copy CRC 5850AE97
Track not present in AccurateRip database
Copy OK

Track 5

Filename C:\FLAC\Brothers Of The Southland - s-t (2009) [FLAC] {Zoho Roots}\05 - Dreams.wav

Peak level 100.0 %
Track quality 100.0 %
Test CRC 8999E925
Copy CRC 8999E925
Track not present in AccurateRip database
Copy OK

Track 6

Filename C:\FLAC\Brothers Of The Southland - s-t (2009) [FLAC] {Zoho Roots}\06 - Blue Sunrise.wav

Peak level 100.0 %
Track quality 100.0 %
Test CRC B7F5E9C7
Copy CRC B7F5E9C7
Track not present in AccurateRip database
Copy OK

Track 7

Filename C:\FLAC\Brothers Of The Southland - s-t (2009) [FLAC] {Zoho Roots}\07 - Love Don't Care.wav

Peak level 100.0 %
Track quality 100.0 %
Test CRC D90482B0
Copy CRC D90482B0
Track not present in AccurateRip database
Copy OK

Track 8

Filename C:\FLAC\Brothers Of The Southland - s-t (2009) [FLAC] {Zoho Roots}\08 - Dixie Highway.wav

Peak level 100.0 %
Track quality 100.0 %
Test CRC 446814C1
Copy CRC 446814C1
Track not present in AccurateRip database
Copy OK

Track 9

Filename C:\FLAC\Brothers Of The Southland - s-t (2009) [FLAC] {Zoho Roots}\09 - Pray For Me.wav

Peak level 100.0 %
Track quality 100.0 %
Test CRC A1898396
Copy CRC A1898396
Track not present in AccurateRip database
Copy OK

Track 10

Filename C:\FLAC\Brothers Of The Southland - s-t (2009) [FLAC] {Zoho Roots}\10 - Back In The Day.wav

Peak level 100.0 %
Track quality 100.0 %
Test CRC 6B17ACA8
Copy CRC 6B17ACA8
Track not present in AccurateRip database
Copy OK

Track 11

Filename C:\FLAC\Brothers Of The Southland - s-t (2009) [FLAC] {Zoho Roots}\11 - Change A Comin'.wav

Peak level 100.0 %
Track quality 100.0 %
Test CRC ECC5709E
Copy CRC ECC5709E
Track not present in AccurateRip database
Copy OK

Track 12

Filename C:\FLAC\Brothers Of The Southland - s-t (2009) [FLAC] {Zoho Roots}\12 - Long Goodbye.wav

Peak level 100.0 %
Track quality 100.0 %
Test CRC A9F368CC
Copy CRC A9F368CC
Track not present in AccurateRip database
Copy OK

Track 13

Filename C:\FLAC\Brothers Of The Southland - s-t (2009) [FLAC] {Zoho Roots}\13 - Can't You See (Radio Edit).wav

Peak level 100.0 %
Track quality 100.0 %
Test CRC 1F5A2C9A
Copy CRC 1F5A2C9A
Track not present in AccurateRip database
Copy OK


None of the tracks are present in the AccurateRip database

No errors occurred

End of status report


Brothers Of The Southland - s/t (2008) {2009 Zoho Roots}