Tags
Language
Tags

Billy Ward & The Dominoes - The Very Best Of... (2002) {Collectables}

Posted By: TestTickles
Billy Ward & The Dominoes - The Very Best Of... (2002) {Collectables}

Billy Ward & The Dominoes - The Very Best Of… (2002) {Collectables}
EAC Rip | FLAC with CUE and LOG | scans | 287 mb
MP3 CBR 320 kbps | RAR | 176 mb
Genre: R&B, doo-wop

The Very Best Of Billy Ward & The Dominoes is a 2002 compilation CD by Billy Ward & The Dominoes. The CD actually credits it to Billy Ward & The Dominoes featuring Clyde McPhatter & Jackie Wilson so you'll know who are some of the people on this disc. Collectables made this happen.

Billy Ward & The Dominoes - The Very Best Of... (2002) {Collectables}

01. Chicken Blues
02. No! Says My Heart
03. Do Something For Me
04. Weeping Willow Blues
05. Sixty Minute Man
06. Harbor Lights
07. That's What You're Doing To Me
08. I Am With You
09. These Foolish Things Remind Me Of You
10. Have Mercy Baby
11. When The Swallows Come Back To Capistrano
12. I'd Be Satisfied
13. The Bells
14. Pedal Pushin' Papa
15. Yours Forever
16. You Can't Keep A Good Man Down
17. Rags To Riches
18. Christmas In Heaven
19. Until The Real Thing Comes Along
20. Three Coins In The Fountain
21. I Really Don't Want To Know
22. Can't Do Sixty No More
23. Give Me You
24. May I Never Love Again
25. Over The Rainbow

Exact Audio Copy V1.0 beta 1 from 15. November 2010

EAC extraction logfile from 4. November 2011, 10:46

Billy Ward & The Dominoes / The Very Best Of…

Used drive : PLEXTOR CD-R PREMIUM Adapter: 0 ID: 1

Read mode : Secure
Utilize accurate stream : Yes
Defeat audio cache : Yes
Make use of C2 pointers : No

Read offset correction : 30
Overread into Lead-In and Lead-Out : Yes
Fill up missing offset samples with silence : Yes
Delete leading and trailing silent blocks : No
Null samples used in CRC calculations : Yes
Used interface : Installed external ASPI interface
Gap handling : Appended to previous track

Used output format : User Defined Encoder
Selected bitrate : 256 kBit/s
Quality : High
Add ID3 tag : No
Command line compressor : D:\Program Files\Exact Audio Copy\FLAC\FLAC.EXE
Additional command line options : -8 -V -T "ARTIST=%a" -T "TITLE=%t" -T "ALBUM=%g" -T "DATE=%y" -T "TRACKNUMBER=%n" -T "TOTALTRACKS=%x" -T "GENRE=%m" -T "ALBUMARTIST=%v" -T "ALBUM ARTIST=%v" -T "COMMENT=EAC Secure Mode, Test & Copy, AccurateRip, FLAC -8" %s


TOC of the extracted CD

Track | Start | Length | Start sector | End sector
––––––––––––––––––––––––––––-
1 | 0:00.00 | 2:52.46 | 0 | 12945
2 | 2:52.46 | 3:09.61 | 12946 | 27181
3 | 6:02.32 | 3:02.74 | 27182 | 40905
4 | 9:05.31 | 2:23.44 | 40906 | 51674
5 | 11:29.00 | 2:30.56 | 51675 | 62980
6 | 13:59.56 | 3:20.13 | 62981 | 77993
7 | 17:19.69 | 2:23.70 | 77994 | 88788
8 | 19:43.64 | 3:11.32 | 88789 | 103145
9 | 22:55.21 | 3:06.67 | 103146 | 117162
10 | 26:02.13 | 2:23.42 | 117163 | 127929
11 | 28:25.55 | 3:03.74 | 127930 | 141728
12 | 31:29.54 | 2:24.27 | 141729 | 152555
13 | 33:54.06 | 3:16.70 | 152556 | 167325
14 | 37:11.01 | 2:31.19 | 167326 | 178669
15 | 39:42.20 | 2:15.55 | 178670 | 188849
16 | 41:58.00 | 2:12.66 | 188850 | 198815
17 | 44:10.66 | 2:41.24 | 198816 | 210914
18 | 46:52.15 | 2:44.01 | 210915 | 223215
19 | 49:36.16 | 3:08.01 | 223216 | 237316
20 | 52:44.17 | 2:32.44 | 237317 | 248760
21 | 55:16.61 | 2:37.27 | 248761 | 260562
22 | 57:54.13 | 2:33.49 | 260563 | 272086
23 | 60:27.62 | 2:22.39 | 272087 | 282775
24 | 62:50.26 | 2:56.66 | 282776 | 296041
25 | 65:47.17 | 2:49.40 | 296042 | 308756


Track 1

Filename C:\cuntfist\FLAC\Billy Ward & The Dominoes - The Very Best Of… (2002) [FLAC] {Collectables}\01 - Chicken Blues.wav

Pre-gap length 0:00:02.00

Peak level 100.0 %
Extraction speed 4.7 X
Track quality 100.0 %
Test CRC A6AEDEB8
Copy CRC A6AEDEB8
Cannot be verified as accurate (confidence 1) [B6CF05B0], AccurateRip returned [2EED72F2]
Copy OK

Track 2

Filename C:\cuntfist\FLAC\Billy Ward & The Dominoes - The Very Best Of… (2002) [FLAC] {Collectables}\02 - No! Says My Heart.wav

Pre-gap length 0:00:02.00

Peak level 98.0 %
Extraction speed 5.0 X
Track quality 100.0 %
Test CRC 785F0C15
Copy CRC 785F0C15
Cannot be verified as accurate (confidence 1) [2ACCA4B7], AccurateRip returned [FB1858F7]
Copy OK

Track 3

Filename C:\cuntfist\FLAC\Billy Ward & The Dominoes - The Very Best Of… (2002) [FLAC] {Collectables}\03 - Do Something For Me.wav

Pre-gap length 0:00:02.00

Peak level 100.0 %
Extraction speed 5.2 X
Track quality 100.0 %
Test CRC 15C78EC0
Copy CRC 15C78EC0
Cannot be verified as accurate (confidence 1) [A7D3AA2E], AccurateRip returned [7ABA4F2E]
Copy OK

Track 4

Filename C:\cuntfist\FLAC\Billy Ward & The Dominoes - The Very Best Of… (2002) [FLAC] {Collectables}\04 - Weeping Willow Blues.wav

Pre-gap length 0:00:02.00

Peak level 96.6 %
Extraction speed 5.5 X
Track quality 100.0 %
Test CRC F0DB2892
Copy CRC F0DB2892
Cannot be verified as accurate (confidence 1) [465EC427], AccurateRip returned [8979FFAF]
Copy OK

Track 5

Filename C:\cuntfist\FLAC\Billy Ward & The Dominoes - The Very Best Of… (2002) [FLAC] {Collectables}\05 - Sixty Minute Man.wav

Pre-gap length 0:00:02.01

Peak level 96.4 %
Extraction speed 4.1 X
Track quality 99.9 %
Test CRC 41BC8111
Copy CRC 41BC8111
Cannot be verified as accurate (confidence 1) [E0EAE6EA], AccurateRip returned [EF44233A]
Copy OK

Track 6

Filename C:\cuntfist\FLAC\Billy Ward & The Dominoes - The Very Best Of… (2002) [FLAC] {Collectables}\06 - Harbor Lights.wav

Pre-gap length 0:00:02.01

Peak level 100.0 %
Extraction speed 6.1 X
Track quality 100.0 %
Test CRC D9A3EB1F
Copy CRC D9A3EB1F
Cannot be verified as accurate (confidence 1) [BB5E5F0A], AccurateRip returned [FF9490F2]
Copy OK

Track 7

Filename C:\cuntfist\FLAC\Billy Ward & The Dominoes - The Very Best Of… (2002) [FLAC] {Collectables}\07 - That's What You're Doing To Me.wav

Pre-gap length 0:00:02.00

Peak level 100.0 %
Extraction speed 6.1 X
Track quality 100.0 %
Test CRC 320C837D
Copy CRC 320C837D
Cannot be verified as accurate (confidence 1) [D8A004A5], AccurateRip returned [92A6D69D]
Copy OK

Track 8

Filename C:\cuntfist\FLAC\Billy Ward & The Dominoes - The Very Best Of… (2002) [FLAC] {Collectables}\08 - I Am With You.wav

Pre-gap length 0:00:02.01

Peak level 100.0 %
Extraction speed 6.4 X
Track quality 100.0 %
Test CRC 7FF552B5
Copy CRC 7FF552B5
Cannot be verified as accurate (confidence 1) [C641EB02], AccurateRip returned [4D396032]
Copy OK

Track 9

Filename C:\cuntfist\FLAC\Billy Ward & The Dominoes - The Very Best Of… (2002) [FLAC] {Collectables}\09 - These Foolish Things Remind Me Of You.wav

Pre-gap length 0:00:02.00

Peak level 100.0 %
Extraction speed 6.8 X
Track quality 100.0 %
Test CRC B2BAFF99
Copy CRC B2BAFF99
Cannot be verified as accurate (confidence 1) [8376AC1E], AccurateRip returned [A124546E]
Copy OK

Track 10

Filename C:\cuntfist\FLAC\Billy Ward & The Dominoes - The Very Best Of… (2002) [FLAC] {Collectables}\10 - Have Mercy Baby.wav

Pre-gap length 0:00:02.01

Peak level 100.0 %
Extraction speed 6.7 X
Track quality 100.0 %
Test CRC 657B854C
Copy CRC 657B854C
Cannot be verified as accurate (confidence 1) [ED88703F], AccurateRip returned [7FBAAB17]
Copy OK

Track 11

Filename C:\cuntfist\FLAC\Billy Ward & The Dominoes - The Very Best Of… (2002) [FLAC] {Collectables}\11 - When The Swallows Come Back To Capistrano.wav

Pre-gap length 0:00:02.00

Peak level 100.0 %
Extraction speed 6.5 X
Track quality 100.0 %
Test CRC 5CBA1903
Copy CRC 5CBA1903
Cannot be verified as accurate (confidence 1) [0E61BFF0], AccurateRip returned [CEA83658]
Copy OK

Track 12

Filename C:\cuntfist\FLAC\Billy Ward & The Dominoes - The Very Best Of… (2002) [FLAC] {Collectables}\12 - I'd Be Satisfied.wav

Pre-gap length 0:00:02.01

Peak level 97.2 %
Extraction speed 5.6 X
Track quality 100.0 %
Test CRC 1C01AACB
Copy CRC 1C01AACB
Cannot be verified as accurate (confidence 1) [AC3A6D7B], AccurateRip returned [B2A3FEC3]
Copy OK

Track 13

Filename C:\cuntfist\FLAC\Billy Ward & The Dominoes - The Very Best Of… (2002) [FLAC] {Collectables}\13 - The Bells.wav

Pre-gap length 0:00:02.01

Peak level 100.0 %
Extraction speed 7.3 X
Track quality 100.0 %
Test CRC 4A8F8662
Copy CRC 4A8F8662
Cannot be verified as accurate (confidence 1) [06DF3BD5], AccurateRip returned [6DB7F635]
Copy OK

Track 14

Filename C:\cuntfist\FLAC\Billy Ward & The Dominoes - The Very Best Of… (2002) [FLAC] {Collectables}\14 - Pedal Pushin' Papa.wav

Pre-gap length 0:00:02.01

Peak level 99.9 %
Extraction speed 7.4 X
Track quality 100.0 %
Test CRC 3008E129
Copy CRC 3008E129
Cannot be verified as accurate (confidence 1) [EFC42E9B], AccurateRip returned [3990485B]
Copy OK

Track 15

Filename C:\cuntfist\FLAC\Billy Ward & The Dominoes - The Very Best Of… (2002) [FLAC] {Collectables}\15 - Yours Forever.wav

Pre-gap length 0:00:02.01

Peak level 100.0 %
Extraction speed 7.3 X
Track quality 100.0 %
Test CRC 734A2882
Copy CRC 734A2882
Cannot be verified as accurate (confidence 1) [BBFFD1EE], AccurateRip returned [FB6F4686]
Copy OK

Track 16

Filename C:\cuntfist\FLAC\Billy Ward & The Dominoes - The Very Best Of… (2002) [FLAC] {Collectables}\16 - You Can't Keep A Good Man Down.wav

Pre-gap length 0:00:02.00

Peak level 99.7 %
Extraction speed 7.4 X
Track quality 100.0 %
Test CRC C7E9B5B1
Copy CRC C7E9B5B1
Cannot be verified as accurate (confidence 1) [9C14F4F5], AccurateRip returned [AF5DEDF5]
Copy OK

Track 17

Filename C:\cuntfist\FLAC\Billy Ward & The Dominoes - The Very Best Of… (2002) [FLAC] {Collectables}\17 - Rags To Riches.wav

Pre-gap length 0:00:02.01

Peak level 100.0 %
Extraction speed 7.8 X
Track quality 100.0 %
Test CRC 6F994DC0
Copy CRC 6F994DC0
Cannot be verified as accurate (confidence 1) [C6FCEC11], AccurateRip returned [2086D4C1]
Copy OK

Track 18

Filename C:\cuntfist\FLAC\Billy Ward & The Dominoes - The Very Best Of… (2002) [FLAC] {Collectables}\18 - Christmas In Heaven.wav

Pre-gap length 0:00:02.00

Peak level 99.3 %
Extraction speed 6.0 X
Track quality 99.9 %
Test CRC 69BC7A4B
Copy CRC 69BC7A4B
Cannot be verified as accurate (confidence 1) [23F34829], AccurateRip returned [20D33751]
Copy OK

Track 19

Filename C:\cuntfist\FLAC\Billy Ward & The Dominoes - The Very Best Of… (2002) [FLAC] {Collectables}\19 - Until The Real Thing Comes Along.wav

Pre-gap length 0:00:02.01

Peak level 100.0 %
Extraction speed 8.5 X
Track quality 100.0 %
Test CRC C9115A96
Copy CRC C9115A96
Cannot be verified as accurate (confidence 1) [6A6865D3], AccurateRip returned [2FC675A3]
Copy OK

Track 20

Filename C:\cuntfist\FLAC\Billy Ward & The Dominoes - The Very Best Of… (2002) [FLAC] {Collectables}\20 - Three Coins In The Fountain.wav

Pre-gap length 0:00:02.01

Peak level 99.9 %
Extraction speed 8.3 X
Track quality 100.0 %
Test CRC 0974A753
Copy CRC 0974A753
Cannot be verified as accurate (confidence 1) [14E54AE6], AccurateRip returned [6B63D206]
Copy OK

Track 21

Filename C:\cuntfist\FLAC\Billy Ward & The Dominoes - The Very Best Of… (2002) [FLAC] {Collectables}\21 - I Really Don't Want To Know.wav

Pre-gap length 0:00:02.00

Peak level 100.0 %
Extraction speed 8.4 X
Track quality 100.0 %
Test CRC 293FD64C
Copy CRC 293FD64C
Cannot be verified as accurate (confidence 1) [0C1B59D0], AccurateRip returned [3F1B1130]
Copy OK

Track 22

Filename C:\cuntfist\FLAC\Billy Ward & The Dominoes - The Very Best Of… (2002) [FLAC] {Collectables}\22 - Can't Do Sixty No More.wav

Pre-gap length 0:00:02.01

Peak level 100.0 %
Extraction speed 8.1 X
Track quality 100.0 %
Test CRC BBE22783
Copy CRC BBE22783
Cannot be verified as accurate (confidence 1) [A93CF0A7], AccurateRip returned [2005FF9F]
Copy OK

Track 23

Filename C:\cuntfist\FLAC\Billy Ward & The Dominoes - The Very Best Of… (2002) [FLAC] {Collectables}\23 - Give Me You.wav

Pre-gap length 0:00:02.01

Peak level 98.0 %
Extraction speed 8.3 X
Track quality 100.0 %
Test CRC 0B7649CA
Copy CRC 0B7649CA
Cannot be verified as accurate (confidence 1) [66550E7E], AccurateRip returned [C08BAA36]
Copy OK

Track 24

Filename C:\cuntfist\FLAC\Billy Ward & The Dominoes - The Very Best Of… (2002) [FLAC] {Collectables}\24 - May I Never Love Again.wav

Pre-gap length 0:00:02.01

Peak level 100.0 %
Extraction speed 8.6 X
Track quality 100.0 %
Test CRC 08E5A860
Copy CRC 08E5A860
Cannot be verified as accurate (confidence 1) [874EBB1B], AccurateRip returned [92BCA3BB]
Copy OK

Track 25

Filename C:\cuntfist\FLAC\Billy Ward & The Dominoes - The Very Best Of… (2002) [FLAC] {Collectables}\25 - Over The Rainbow.wav

Pre-gap length 0:00:02.00

Peak level 99.4 %
Extraction speed 10.7 X
Track quality 100.0 %
Test CRC 50AF1730
Copy CRC 50AF1730
Cannot be verified as accurate (confidence 1) [D10CC5AB], AccurateRip returned [8821BC0D]
Copy OK


No tracks could be verified as accurate
You may have a different pressing from the one(s) in the database

No errors occurred

End of status report

==== Log checksum 745497D3769302F1A1DCB79C4D3A8F06DFE1A86DC9F0E3B3315C833850D99DFF ====


Billy Ward & The Dominoes - The Very Best Of... (2002) {Collectables}


Thank you to the original uploader.