Subcategories
Tags
Language
Tags

A.C.T - Circus Pandemonium (2014) [Japanese Ed.]

Posted By: Andi_Deris
A.C.T - Circus Pandemonium (2014) [Japanese Ed.]

A.C.T - Circus Pandemonium (2014) [Japanese Ed.]
EAC Rip | FLAC: Image+Cue+Log | 415 Mb | MP3 CBR 320 kbps | 149 Mb | Scans | 114 Mb | Time: 56:07
Marquee Inc./Avalon | MICP-11137
Progressive Rock, Symphonic/Eclectic Prog

A.C.T has recharged the batteries and now give us an album of splendour where the fans are in for a treat with progrock extravaganza, the classic A.C.T sound has returned and a tear almost fall from my eyes when I hear the fruitful "A Truly Gifted Man". "Look at the Freak" is the best song Sparks never wrote back in the 70´s, this band truly has a unique sound of artpop and progrock that is built on love for their heroes such as It Bites, Big Money, ELO, 10cc, etc.

A.C.T - Circus Pandemonium (2014) [Japanese Ed.]




A.C.T - Circus Pandemonium (2014) [Japanese Ed.]


Track Listing

01. Intro (1:01)
02. The End (5:56)
03. Everything's Falling (4:55)
04. Manager's Wish (5:54)
05. A Truly Gifted Man (6:44)
06. Presentation (1:03)
07. Look At The Freak (1:13)
08. Argument (1:06)
09. Confrontation (1:12)
10. A Mother's Love (2:37)
11. The Funniest Man Alive (3:46)
12. Scared (Bonus track for Japan) (4:43)
13. A Failed Escape Attempt (5:18)
14. Lady In White (4:40)
15. Freak Of Nature (5:59)

Produced by A.C.T

The Band

• Jerry Sahlin - synthesizers, vocoder, lead vocals and backing vocals
• Ola Andersson - guitars, lead vocals and backing vocals
• Peter Asp - bass
• Herman Saming - lead vocals and backing vocals
• Thomas Lejon - drums

*****
• Peter Rider - voice
• Imogen Ross - voice
• Jim Gilmour - keysolo on ’’Confrontation’’
• Sara Wendelford - lead vocals on ’’A Mother's Love’’ and ’’Scared’’
• Linnea Olnert - lead and backing vocals on ’’A Failed Escape Attempt’’, ’’Everything's Falling’’, ’’A Truly Gifted Man’’ and ’’The Funniest Man Alive’’
• Martin vensson - strings and orchestra

Exact Audio Copy V1.0 beta 3 from 29. August 2011

EAC extraction logfile from 25. February 2014, 20:44

A.C.T / Circus Pandemonium

Used drive : SlimtypeDVD A DS8A5SH Adapter: 0 ID: 1

Read mode : Secure
Utilize accurate stream : Yes
Defeat audio cache : Yes
Make use of C2 pointers : No

Read offset correction : 6
Overread into Lead-In and Lead-Out : No
Fill up missing offset samples with silence : Yes
Delete leading and trailing silent blocks : No
Null samples used in CRC calculations : Yes
Used interface : Native Win32 interface for Win NT & 2000

Used output format : User Defined Encoder
Selected bitrate : 320 kBit/s
Quality : High
Add ID3 tag : No
Command line compressor : C:\Program Files (x86)\Exact Audio Copy\Flac\flac.exe
Additional command line options : -V -8 -T "Date=%year%" -T "Genre=%genre%" %source%


TOC of the extracted CD

Track | Start | Length | Start sector | End sector
––––––––––––––––––––––––––––-
1 | 0:00.00 | 1:01.36 | 0 | 4610
2 | 1:01.36 | 5:56.43 | 4611 | 31353
3 | 6:58.04 | 4:54.74 | 31354 | 53477
4 | 11:53.03 | 5:54.00 | 53478 | 80027
5 | 17:47.03 | 6:44.53 | 80028 | 110380
6 | 24:31.56 | 1:02.72 | 110381 | 115102
7 | 25:34.53 | 1:13.31 | 115103 | 120608
8 | 26:48.09 | 1:06.53 | 120609 | 125611
9 | 27:54.62 | 1:12.46 | 125612 | 131057
10 | 29:07.33 | 2:37.06 | 131058 | 142838
11 | 31:44.39 | 3:46.25 | 142839 | 159813
12 | 35:30.64 | 4:43.00 | 159814 | 181038
13 | 40:13.64 | 5:18.20 | 181039 | 204908
14 | 45:32.09 | 4:40.31 | 204909 | 225939
15 | 50:12.40 | 5:59.57 | 225940 | 252921


Range status and errors

Selected range

Filename D:\My Music\A.C.T - Japanese Lossless Discography\A.C.T - 2014 Circus Pandemonium\A.C.T - Circus Pandemonium.wav

Peak level 100.0 %
Extraction speed 1.8 X
Range quality 100.0 %
Test CRC E217DC11
Copy CRC E217DC11
Copy OK

No errors occurred


AccurateRip summary

Track 1 not present in database
Track 2 not present in database
Track 3 not present in database
Track 4 not present in database
Track 5 not present in database
Track 6 not present in database
Track 7 not present in database
Track 8 not present in database
Track 9 not present in database
Track 10 not present in database
Track 11 not present in database
Track 12 not present in database
Track 13 not present in database
Track 14 not present in database
Track 15 not present in database

None of the tracks are present in the AccurateRip database

End of status report

==== Log checksum 18B8F2155DFDC030AEA437B2A07045B0DD455224EA9EA98903D510D03364B450 ====


Many thanks to the original uploader: kolushew

SEE also:
A.C.T 1999 Today's Report [Japanese Ed.]
A.C.T 2001 Imaginary Friends [Japanese Ed.]
A.C.T 2003 Last Epic [Japanese Ed.]
A.C.T 2006 Silence [Japanese Ed.]