Subcategories

Judy Collins - A Love Letter To Stephen Sondheim (2017)

Posted By: SERTiL
Judy Collins - A Love Letter To Stephen Sondheim (2017)

Judy Collins - A Love Letter To Stephen Sondheim (2017)
EAC Rip | FLAC (tracks)+cue, log, m3u, front cover | 172 MB
Label: Cleopatra ‎– CLO 0540 | Tracks: 10 | Time: 35:33 min
Vocal Jazz

One of the most gifted composers in American music history, Stephen Sondheim, is celebrated by legendary folk icon Judy Collins on this spectacular studio album!
Gorgeous and stunning versions of Sondheim's most moving songs including the song that started it all, Send In The Clowns, which Collins covered in 1975 became her best-selling and highest charting single, establishing her as the pre-eminent female folk artist of the day!

Tracklist:
1. No One Is Alone (03:07)
2. Finishing the Hat (02:55)
3. Not While I'm Around (02:51)
4. Take Me to the World (02:54)
5. Liasons (04:58)
6. Move On (03:56)
7. Not a Day Goes By (03:26)
8. Send in the Clowns (03:58)
9. I'm Still Here (04:48)
10. Anyone Can Whistle (02:40)

Exact Audio Copy V1.3 from 2. September 2016

EAC extraction logfile from 23. October 2017, 20:43

Judy Collins / A Love Letter to Stephen Sondheim

Used drive : TSSTcorpDVD+-RW TS-H653B Adapter: 1 ID: 0

Read mode : Secure
Utilize accurate stream : Yes
Defeat audio cache : Yes
Make use of C2 pointers : No

Read offset correction : 6
Overread into Lead-In and Lead-Out : No
Fill up missing offset samples with silence : Yes
Delete leading and trailing silent blocks : No
Null samples used in CRC calculations : Yes
Used interface : Native Win32 interface for Win NT & 2000
Gap handling : Appended to previous track

Used output format : User Defined Encoder
Selected bitrate : 1024 kBit/s
Quality : High
Add ID3 tag : No
Command line compressor : C:\Program Files (x86)\Exact Audio Copy\Flac\flac.exe
Additional command line options : -8 -V -T "ARTIST=%artist%" -T "TITLE=%title%" -T "ALBUM=%albumtitle%" -T "DATE=%year%" -T "TRACKNUMBER=%tracknr%" -T "GENRE=%genre%" -T "PERFORMER=%albuminterpret%" -T "COMPOSER=%composer%" %haslyrics%–tag-from-file=LYRICS="%lyricsfile%"%haslyrics% -T "ALBUMARTIST=%albumartist%" -T "DISCNUMBER=%cdnumber%" -T "TOTALDISCS=%totalcds%" -T "TOTALTRACKS=%numtracks%" -T "COMMENT=%comment%" %source% -o %dest%


TOC of the extracted CD

Track | Start | Length | Start sector | End sector
––––––––––––––––––––––––––––-
1 | 0:00.00 | 3:07.71 | 0 | 14095
2 | 3:07.71 | 2:55.38 | 14096 | 27258
3 | 6:03.34 | 2:51.63 | 27259 | 40146
4 | 8:55.22 | 2:54.69 | 40147 | 53265
5 | 11:50.16 | 4:58.08 | 53266 | 75623
6 | 16:48.24 | 3:56.33 | 75624 | 93356
7 | 20:44.57 | 3:26.45 | 93357 | 108851
8 | 24:11.27 | 3:58.58 | 108852 | 126759
9 | 28:10.10 | 4:48.17 | 126760 | 148376
10 | 32:58.27 | 2:40.10 | 148377 | 160386


Track 1

Filename C:\Judy Collins - 2017 - A Love Letter to Stephen Sondheim\01 - No One Is Alone.wav

Pre-gap length 0:00:02.00

Peak level 90.9 %
Extraction speed 1.6 X
Track quality 100.0 %
Test CRC 1231564E
Copy CRC 1231564E
Accurately ripped (confidence 4) [8C9CF761] (AR v2)
Copy OK

Track 2

Filename C:\Judy Collins - 2017 - A Love Letter to Stephen Sondheim\02 - Finishing the Hat.wav

Peak level 95.4 %
Extraction speed 1.7 X
Track quality 100.0 %
Test CRC C0B80D0F
Copy CRC C0B80D0F
Accurately ripped (confidence 4) [3FA19888] (AR v2)
Copy OK

Track 3

Filename C:\Judy Collins - 2017 - A Love Letter to Stephen Sondheim\03 - Not While I'm Around.wav

Peak level 86.9 %
Extraction speed 1.8 X
Track quality 100.0 %
Test CRC B50A4114
Copy CRC B50A4114
Accurately ripped (confidence 4) [9E42EE63] (AR v2)
Copy OK

Track 4

Filename C:\Judy Collins - 2017 - A Love Letter to Stephen Sondheim\04 - Take Me to the World.wav

Peak level 93.7 %
Extraction speed 1.6 X
Track quality 99.9 %
Test CRC 785D1262
Copy CRC 785D1262
Accurately ripped (confidence 4) [CB2AEC51] (AR v2)
Copy OK

Track 5

Filename C:\Judy Collins - 2017 - A Love Letter to Stephen Sondheim\05 - Liaisons.wav

Peak level 88.8 %
Extraction speed 2.0 X
Track quality 99.9 %
Test CRC 8508E237
Copy CRC 8508E237
Accurately ripped (confidence 4) [ADF0EC29] (AR v2)
Copy OK

Track 6

Filename C:\Judy Collins - 2017 - A Love Letter to Stephen Sondheim\06 - Move On.wav

Peak level 95.4 %
Extraction speed 2.3 X
Track quality 100.0 %
Test CRC C677BE3C
Copy CRC C677BE3C
Accurately ripped (confidence 4) [43340E51] (AR v2)
Copy OK

Track 7

Filename C:\Judy Collins - 2017 - A Love Letter to Stephen Sondheim\07 - Not a Day Goes By.wav

Peak level 94.2 %
Extraction speed 2.4 X
Track quality 100.0 %
Test CRC BF2A2161
Copy CRC BF2A2161
Accurately ripped (confidence 4) [32023272] (AR v2)
Copy OK

Track 8

Filename C:\Judy Collins - 2017 - A Love Letter to Stephen Sondheim\08 - Send the Clounds.wav

Peak level 95.3 %
Extraction speed 2.6 X
Track quality 100.0 %
Test CRC 4F500CBE
Copy CRC 4F500CBE
Accurately ripped (confidence 4) [8250CD36] (AR v2)
Copy OK

Track 9

Filename C:\Judy Collins - 2017 - A Love Letter to Stephen Sondheim\09 - I'm Still Here.wav

Peak level 95.5 %
Extraction speed 2.8 X
Track quality 100.0 %
Test CRC 78A0B197
Copy CRC 78A0B197
Accurately ripped (confidence 4) [518DEAD9] (AR v2)
Copy OK

Track 10

Filename C:\Judy Collins - 2017 - A Love Letter to Stephen Sondheim\10 - Anyone Can Whistle.wav

Peak level 87.0 %
Extraction speed 2.6 X
Track quality 100.0 %
Test CRC 1849D783
Copy CRC 1849D783
Accurately ripped (confidence 4) [8A1C987B] (AR v2)
Copy OK


All tracks accurately ripped

No errors occurred

End of status report

==== Log checksum AB6A3F21E5EDD3FF44A57F9848531A64AEBC8FA39A4EE53F56684AF27132AA4E ====


Thanks to the Original customer.