Subcategories

Armenian Sacred & Folk Music - Yerevan Women's Choir of Armenia; Artur Veranian (1992)

Posted By: Aregak
Armenian Sacred & Folk Music - Yerevan Women's Choir of Armenia; Artur Veranian (1992)

Armenian Sacred & Folk Music - Yerevan Women's Choir of Armenia; Artur Veranian (Komitas, Petrossian, Shnorhali, Mashtots, Yekmalian, Erkanian, Gabrielli, Sidernikov, Melnas, Haladjian) (1992)
EAC Rip | FLAC, IMG+CUE, LOG, Scans (jpg) | 1:09;25 | 325.4 MB
Classical | MEG Recordings / MEG002

The CD is comprised of eighteen works, eight by the world-famous Armenian musician Komitas. In addition, works by Robert Petrosian, Makar Ekmalian, Nerses Shnorhali (12th century), Mesrop Mashtots (5th century), Ervand Erkanian, Giovanni Gabrieli (16-17th century), Nikolay Sidelnikov, Arne MellnŠs, and David Haladjian round out the mix of classical and modern composers.
The Yerevan Women's choir is a thirty-member musical chamber group with a distinctive sound. Most of their works are from the a capella tradition of Armenian music. They have performed at more than 300 concerts world-wide: throughout Armenia, the former Soviet Republics, and Western Europe. They have received many international awards.
This CD highlights the choral mastery that the Yerevan Women's Choir of Armenia has achieved. They move easily from sacred pieces to traditional folk music, always producing a beautiful sound. Excerpts from the Armenian Divine Liturgy are among the most beautiful of their renditions (for example Surb, Surb; Amen Hair Surb).
This CD is a must add to the anyone's collection of music..
Performer:
Yerevan Women's Choir of Armenia;
Artur Veranian - Conductor

Track Listings:
1. Komitas- Kali Erg
2. Andzrevn Ekav
3. Shogher Djan
4. Habrban
5. Hoy Nazan
6. Kutanerg
7. Petrossian- Abaran
8. Komitas- Surb, Surb
9. Hayrapetakan Maghdank
10. Shnorhali- Amen Hair Surb
11. Mashtots- Ognakan Enduneli
12. Voghormia Intz Asdvats
13. Yekmalian- Surb, Surb
14. Erkanian- Orhnial Lines Du
15. Gabrielli- Madrigal
16. Sidernikov- Metamorphoses
17. Melnas- Aglepta
18. Haladjian- Stabat Mater

Exact Audio Copy V1.0 beta 1 from 15. November 2010

EAC extraction logfile from 17. March 2012, 21:08

Artur Veranian / Yerevan Women's Choir of Armenia

Used drive : HL-DT-STDVDRAM GH41N Adapter: 3 ID: 1

Read mode : Secure
Utilize accurate stream : Yes
Defeat audio cache : Yes
Make use of C2 pointers : No

Read offset correction : 667
Overread into Lead-In and Lead-Out : No
Fill up missing offset samples with silence : Yes
Delete leading and trailing silent blocks : No
Null samples used in CRC calculations : Yes
Used interface : Native Win32 interface for Win NT & 2000

Used output format : User Defined Encoder
Selected bitrate : 768 kBit/s
Quality : High
Add ID3 tag : No
Command line compressor : C:\Program Files\Exact Audio Copy\Flac\flac.exe
Additional command line options : -8 -V %s

TOC of the extracted CD

Track | Start | Length | Start sector | End sector
––––––––––––––––––––––––––––-
1 | 0:00.00 | 5:57.17 | 0 | 26791
2 | 5:57.17 | 1:00.18 | 26792 | 31309
3 | 6:57.35 | 1:07.05 | 31310 | 36339
4 | 8:04.40 | 1:29.60 | 36340 | 43074
5 | 9:34.25 | 2:54.47 | 43075 | 56171
6 | 12:28.72 | 3:40.15 | 56172 | 72686
7 | 16:09.12 | 1:58.20 | 72687 | 81556
8 | 18:07.32 | 2:44.03 | 81557 | 93859
9 | 20:51.35 | 1:49.05 | 93860 | 102039
10 | 22:40.40 | 4:37.10 | 102040 | 122824
11 | 27:17.50 | 1:06.62 | 122825 | 127836
12 | 28:24.37 | 2:24.25 | 127837 | 138661
13 | 30:48.62 | 3:08.08 | 138662 | 152769
14 | 33:56.70 | 2:49.72 | 152770 | 165516
15 | 36:46.67 | 3:26.45 | 165517 | 181011
16 | 40:13.37 | 5:59.23 | 181012 | 207959
17 | 46:12.60 | 4:58.27 | 207960 | 230336
18 | 51:11.12 | 19:23.50 | 230337 | 317611

Range status and errors

Selected range

Filename C:\Program Files\Exact Audio Copy\Flac\Artur Veranian - Yerevan Women's Choir of Armenia.wav

Peak level 81.0 %
Extraction speed 0.4 X
Range quality 99.9 %
Test CRC 6B8A143C
Copy CRC 6B8A143C
Copy OK

No errors occurred

AccurateRip summary

Track 1 accurately ripped (confidence 1) [9D116EA6]
Track 2 accurately ripped (confidence 1) [1D201986]
Track 3 accurately ripped (confidence 1) [6D74EAC7]
Track 4 accurately ripped (confidence 1) [226D010B]
Track 5 accurately ripped (confidence 1) [01A8E186]
Track 6 accurately ripped (confidence 1) [06074AD7]
Track 7 accurately ripped (confidence 1) [CCA3B502]
Track 8 accurately ripped (confidence 1) [AE7F7677]
Track 9 accurately ripped (confidence 1) [F2A3A74C]
Track 10 accurately ripped (confidence 1) [9C403BC4]
Track 11 accurately ripped (confidence 1) [57D8BD10]
Track 12 accurately ripped (confidence 1) [B1756CB5]
Track 13 accurately ripped (confidence 1) [A44ED91C]
Track 14 accurately ripped (confidence 1) [14D745C6]
Track 15 accurately ripped (confidence 1) [B11A7DED]
Track 16 accurately ripped (confidence 1) [3DBE3A20]
Track 17 accurately ripped (confidence 1) [53E52BF4]
Track 18 accurately ripped (confidence 1) [44EDDE79]

All tracks accurately ripped

End of status report

==== Log checksum EAD88E053EC19B1545C114B16CCFD8660A359EA12DC8CE8429E7A2C9F628C447 ====