Tags
Language
Tags

Ahmad Jamal Trio - Ahmad Jamal at the Pershing: But Not for Me (1958) [Japanese Edition 2002]

Posted By: gribovar
Ahmad Jamal Trio - Ahmad Jamal at the Pershing: But Not for Me (1958) [Japanese Edition 2002]

Ahmad Jamal Trio - Ahmad Jamal at the Pershing: But Not for Me (1958) [Japanese Edition 2002]
EAC Rip | FLAC (tracks+.cue+log) - 195 MB | MP3 CBR 320 kbps (LAME 3.93) - 79 MB | Covers (5 MB) included
Genre: Jazz | RAR 3% Rec. | Label: Universal Music (UCCC-9006)

Recorded at the Pershing Club in Chicago, IL, Jamal's third album (including the hit "Poinciana") was the turning point in his career. His liberal use of silence influenced many jazz musicians, including Miles Davis.
Tracklist:
01. But Not for Me
02. Surrey with the Fringe on Top
03. Moonlight in Vermont
04. Music, Music, Music
05. No Greater Love
06. Poinciana
07. Woody 'n You
08. What's New

Total time: 31:40

Exact Audio Copy V1.0 beta 1 from 15. November 2010

EAC extraction logfile from 1. April 2011, 12:19

Ahmad Jamal Trio / AtThe Pershing, But Not For Me

Used drive : HL-DT-STDVDRAM GSA-T50N Adapter: 0 ID: 1

Read mode : Secure
Utilize accurate stream : Yes
Defeat audio cache : Yes
Make use of C2 pointers : No

Read offset correction : 667
Overread into Lead-In and Lead-Out : No
Fill up missing offset samples with silence : Yes
Delete leading and trailing silent blocks : No
Null samples used in CRC calculations : Yes
Used interface : Native Win32 interface for Win NT & 2000
Gap handling : Appended to previous track

Used output format : User Defined Encoder
Selected bitrate : 320 kBit/s
Quality : High
Add ID3 tag : No
Command line compressor : C:\Program Files\Exact Audio Copy\Flac\flac.exe
Additional command line options : -8 -V -T "ARTIST=%a" -T "TITLE=%t" -T "ALBUM=%g" -T "DATE=%y" -T "TRACKNUMBER=%n" -T "TOTALTRACKS=%x" -T "GENRE=%m" -T "ALBUMARTIST=%v" -T "ALBUM ARTIST=%v" -T "COMMENT=EAC Secure Mode, Test & Copy, AccurateRip, FLAC -8" %s


TOC of the extracted CD

Track | Start | Length | Start sector | End sector
––––––––––––––––––––––––––––-
1 | 0:00.00 | 3:32.45 | 0 | 15944
2 | 3:32.45 | 2:35.55 | 15945 | 27624
3 | 6:08.25 | 3:10.05 | 27625 | 41879
4 | 9:18.30 | 2:57.22 | 41880 | 55176
5 | 12:15.52 | 3:25.38 | 55177 | 70589
6 | 15:41.15 | 8:08.47 | 70590 | 107236
7 | 23:49.62 | 3:40.63 | 107237 | 123799
8 | 27:30.50 | 4:09.42 | 123800 | 142516


Track 1

Filename D:\Fiamma\Ahmad JamalTrio - At The Pershing, But Not For Me (1958) [FLAC] (Argo Cadet 24Bit)\01 - But Not For Me.wav

Pre-gap length 0:00:02.00

Peak level 77.9 %
Extraction speed 2.4 X
Track quality 100.0 %
Test CRC 2CF8F80C
Copy CRC 2CF8F80C
Cannot be verified as accurate (confidence 3) [92AE62E3], AccurateRip returned [B67414F9]
Copy OK

Track 2

Filename D:\Fiamma\Ahmad JamalTrio - At The Pershing, But Not For Me (1958) [FLAC] (Argo Cadet 24Bit)\02 - Surrey With The Fringe On Top.wav

Peak level 85.3 %
Extraction speed 2.0 X
Track quality 99.9 %
Test CRC FD9E504E
Copy CRC FD9E504E
Cannot be verified as accurate (confidence 3) [BAEF8C6E], AccurateRip returned [142F24B8]
Copy OK

Track 3

Filename D:\Fiamma\Ahmad JamalTrio - At The Pershing, But Not For Me (1958) [FLAC] (Argo Cadet 24Bit)\03 - Moonlight In Vermont.wav

Peak level 74.8 %
Extraction speed 2.7 X
Track quality 100.0 %
Test CRC BC49F6B6
Copy CRC BC49F6B6
Cannot be verified as accurate (confidence 3) [D44DC385], AccurateRip returned [F06451B9]
Copy OK

Track 4

Filename D:\Fiamma\Ahmad JamalTrio - At The Pershing, But Not For Me (1958) [FLAC] (Argo Cadet 24Bit)\04 - Music, Music, Music.wav

Peak level 87.1 %
Extraction speed 2.4 X
Track quality 99.9 %
Test CRC 0BA84CAB
Copy CRC 0BA84CAB
Cannot be verified as accurate (confidence 3) [3CDBC35B], AccurateRip returned [09199FC1]
Copy OK

Track 5

Filename D:\Fiamma\Ahmad JamalTrio - At The Pershing, But Not For Me (1958) [FLAC] (Argo Cadet 24Bit)\05 - No Greater Love.wav

Peak level 100.0 %
Extraction speed 3.1 X
Track quality 100.0 %
Test CRC 6B516933
Copy CRC 6B516933
Cannot be verified as accurate (confidence 3) [BDBC25E3], AccurateRip returned [9C63EB51]
Copy OK

Track 6

Filename D:\Fiamma\Ahmad JamalTrio - At The Pershing, But Not For Me (1958) [FLAC] (Argo Cadet 24Bit)\06 - Poinciana.wav

Pre-gap length 0:00:01.59

Peak level 95.5 %
Extraction speed 3.7 X
Track quality 100.0 %
Test CRC D8FCCC7E
Copy CRC D8FCCC7E
Cannot be verified as accurate (confidence 3) [2AD10565], AccurateRip returned [316A340E]
Copy OK

Track 7

Filename D:\Fiamma\Ahmad JamalTrio - At The Pershing, But Not For Me (1958) [FLAC] (Argo Cadet 24Bit)\07 - Woody 'N' You.wav

Peak level 90.1 %
Extraction speed 3.2 X
Track quality 99.9 %
Test CRC D3364A1C
Copy CRC D3364A1C
Cannot be verified as accurate (confidence 3) [54A93652], AccurateRip returned [A090BDD1]
Copy OK

Track 8

Filename D:\Fiamma\Ahmad JamalTrio - At The Pershing, But Not For Me (1958) [FLAC] (Argo Cadet 24Bit)\08 - What's New.wav

Peak level 80.3 %
Extraction speed 4.0 X
Track quality 100.0 %
Test CRC 5EDB8852
Copy CRC 5EDB8852
Cannot be verified as accurate (confidence 3) [6E782EAC], AccurateRip returned [DAF8EEE2]
Copy OK


No tracks could be verified as accurate
You may have a different pressing from the one(s) in the database

No errors occurred

End of status report

==== Log checksum 552107111D6F61EBFDCBBAB40BA5A6164106D04B920FA108E6BEB8DDCBFEDB07 ====

[CUETools log; Date: 06.12.2018 0:52:36; Version: 2.1.4]
[CTDB TOCID: _J5c95q90GRlrN2b22H2MiBbSso-] found.
Track | CTDB Status
1 | (45/45) Accurately ripped
2 | (45/45) Accurately ripped
3 | (45/45) Accurately ripped
4 | (45/45) Accurately ripped
5 | (45/45) Accurately ripped
6 | (45/45) Accurately ripped
7 | (45/45) Accurately ripped
8 | (45/45) Accurately ripped
[AccurateRip ID: 0008ec43-003d1e2f-56076c08] found.
Track [ CRC | V2 ] Status
01 [92ae62e3|ec2cb318] (00+03/21) Accurately ripped
02 [baef8c6e|367cb063] (00+03/21) Accurately ripped
03 [d44dc385|6a6e92ee] (00+03/21) Accurately ripped
04 [3cdbc35b|5d9f62a0] (00+03/21) Accurately ripped
05 [bdbc25e3|9955cce0] (00+03/21) Accurately ripped
06 [2ad10565|a5bdd818] (00+03/21) Accurately ripped
07 [54a93652|acebb1fa] (00+03/21) Accurately ripped
08 [6e782eac|e33939a0] (00+03/21) Accurately ripped
Offsetted by 846:
01 [b67414f9] (05/21) Accurately ripped
02 [142f24b8] (05/21) Accurately ripped
03 [f06451b9] (05/21) Accurately ripped
04 [09199fc1] (05/21) Accurately ripped
05 [9c63eb51] (05/21) Accurately ripped
06 [316a340e] (05/21) Accurately ripped
07 [a090bdd1] (05/21) Accurately ripped
08 [daf8eee2] (05/21) Accurately ripped
Offsetted by 828:
01 [6d971285] (00/21) No match (V2 was not tested)
02 [b7ab1a38] (00/21) No match (V2 was not tested)
03 [9bd802de] (00/21) No match (V2 was not tested)
04 [b3fcc417] (00/21) No match (V2 was not tested)
05 [11eef9d2] (00/21) No match (V2 was not tested)
06 [e7147b67] (00/21) No match (V2 was not tested)
07 [555ad1a1] (00/21) No match (V2 was not tested)
08 [aa5dbbc7] (00/21) No match (V2 was not tested)

Track Peak [ CRC32 ] [W/O NULL] [ LOG ]
– 100,0 [618624B5] [009CEFAB]
01 77,9 [2CF8F80C] [5CCD5C47] CRC32
02 85,3 [FD9E504E] [D29FC7AB] CRC32
03 74,8 [BC49F6B6] [C961E89F] CRC32
04 87,1 [0BA84CAB] [3CBCFACD] CRC32
05 100,0 [6B516933] [90A73E14] CRC32
06 95,5 [D8FCCC7E] [2571817E] CRC32
07 90,1 [D3364A1C] [B87048A0] CRC32
08 80,3 [5EDB8852] [F01B0C12] CRC32

Thanks to Fiamma