Tags
Language
Tags

Alan Curtis - Johann Sebastian Bach: Goldberg-Variationen, BWV 988 (1989)

Posted By: ArlegZ
Alan Curtis - Johann Sebastian Bach: Goldberg-Variationen, BWV 988 (1989)

Alan Curtis - Johann Sebastian Bach: Goldberg-Variationen, BWV 988 (1989)
EAC | FLAC | Image (Cue & Log) ~ 487 Mb | Total time: 76:10 | Scans included
Classical | Label: EMI | # CDM 7 63062 2 | Recorded: 1976

Alan Curtis (November 17, 1934 – July 15, 2015) was an American harpsichordist, musicologist, and conductor baroque opera. Born in Mason, Michigan, Curtis graduated from studies at the University of Illinois, and received his PhD in 1960 with a dissertation on the keyboard music of Sweelinck. He then relocated to Amsterdam to work with Gustav Leonhardt,[1] with whom he subsequently recorded a number of Bach's concerti for harpsichord. In the 1960s and 1970s, he made a number of recordings of solo harpsichord music[2] including albums dedicated to the keyboard music of Rameau and the works of Johann Sebastian Bach, such as his recording of the Goldberg Variations made on a 1728 Christian Zell harpsichord.

Performer:
Alan Curtis, harpsichord

Track List:
Aria mit 30 Veränderungen, BWV 988 "The Goldberg Variations"
01. Aria
02. Variatio 1 a 1 Clav.
03. Variatio 2 a 1 Clav.
04. Variatio 3 Canone all'Unisono a 1 Clav.
05. Variatio 4 a 1 Clav.
06. Variatio 5 a ovvero 2 Clav.
07. Variatio 6 Canone alla Seconda a 1 Clav.
08. Variatio 7 a 1 ovvero 2 Clav.
09. Variatio 8 a 2 Clav.
10. Variatio 9 Canone alla Terza a 1 Clav.
11. Variatio 10 Fughetta a 1 Clav.
12. Variatio 11 a 2 Clav.
13. Variatio 12 Canone alla Quarta
14. Variatio 13 a 2 Clav.
15. Variatio 14 a 2 Clav.
16. Variatio 15 Canone alla Quinta a 1 Clav.
17. Variatio 16 Ouvertuere a 1 Clav.
18. Variatio 17 a 2 Clav.
19. Variatio 18 Canone alla Sexta a 1 Clav.
20. Variatio 19 a 1 Clav.
21. Variatio 20 a 2 Clav.
22. Variatio 21 Canone alla Settima
23. Variatio 22 a 1 Clav. (Alla breve)
24. Variatio 23 a 2 Clav.
25. Variatio 24 Canone all'Ottava a 1 Clav.
26. Variatio 25 a 2 Clav.
27. Variatio 26 a 2 Clav.
28. Variatio 27 Canone alla Nona a 1 Clav.
29. Variatio 28 a 2 Clav.
30. Variatio 29 a 1 ovvero 2 Clav.
31. Variatio 30 Quodlibet a 1 Clav.
32. Aria da capo


Exact Audio Copy V1.6 from 23. October 2020

EAC extraction logfile from 9. August 2021, 12:28

- / Goldberg-Variationen, BWV 988

Used drive : HL-DT-STDVD+-RW GU90N Adapter: 1 ID: 0

Read mode : Secure
Utilize accurate stream : Yes
Defeat audio cache : Yes
Make use of C2 pointers : No

Read offset correction : 102
Overread into Lead-In and Lead-Out : No
Fill up missing offset samples with silence : Yes
Delete leading and trailing silent blocks : No
Null samples used in CRC calculations : Yes
Used interface : Native Win32 interface for Win NT & 2000

Used output format : User Defined Encoder
Selected bitrate : 1024 kBit/s
Quality : High
Add ID3 tag : No
Command line compressor : C:\Program Files (x86)\Exact Audio Copy\Flac\flac.exe
Additional command line options : -8 -V -T "ARTIST=%artist%" -T "TITLE=%title%" -T "ALBUM=%albumtitle%" -T "DATE=%year%" -T "TRACKNUMBER=%tracknr%" -T "GENRE=%genre%" -T "PERFORMER=%albuminterpret%" -T "COMPOSER=%composer%" %haslyrics%–tag-from-file=LYRICS="%lyricsfile%"%haslyrics% -T "ALBUMARTIST=%albumartist%" -T "DISCNUMBER=%cdnumber%" -T "TOTALDISCS=%totalcds%" -T "TOTALTRACKS=%numtracks%" -T "COMMENT=%comment%" %source% -o %dest%


TOC of the extracted CD

Track | Start | Length | Start sector | End sector
––––––––––––––––––––––––––––-
1 | 0:00.00 | 3:48.42 | 0 | 17141
2 | 3:48.42 | 2:24.50 | 17142 | 27991
3 | 6:13.17 | 1:55.40 | 27992 | 36656
4 | 8:08.57 | 2:07.65 | 36657 | 46246
5 | 10:16.47 | 1:19.30 | 46247 | 52201
6 | 11:36.02 | 1:43.00 | 52202 | 59926
7 | 13:19.02 | 1:30.70 | 59927 | 66746
8 | 14:49.72 | 1:35.63 | 66747 | 73934
9 | 16:25.60 | 1:13.67 | 73935 | 79476
10 | 17:39.52 | 1:43.50 | 79477 | 87251
11 | 19:23.27 | 1:59.73 | 87252 | 96249
12 | 21:23.25 | 2:28.65 | 96250 | 107414
13 | 23:52.15 | 2:48.62 | 107415 | 120076
14 | 26:41.02 | 4:31.60 | 120077 | 140461
15 | 31:12.62 | 2:28.53 | 140462 | 151614
16 | 33:41.40 | 3:30.70 | 151615 | 167434
17 | 37:12.35 | 3:14.12 | 167435 | 181996
18 | 40:26.47 | 2:07.58 | 181997 | 191579
19 | 42:34.30 | 1:45.07 | 191580 | 199461
20 | 44:19.37 | 1:32.20 | 199462 | 206381
21 | 45:51.57 | 2:09.45 | 206382 | 216101
22 | 48:01.27 | 2:38.00 | 216102 | 227951
23 | 50:39.27 | 1:41.03 | 227952 | 235529
24 | 52:20.30 | 2:30.12 | 235530 | 246791
25 | 54:50.42 | 3:03.13 | 246792 | 260529
26 | 57:53.55 | 5:47.25 | 260530 | 286579
27 | 63:41.05 | 2:20.27 | 286580 | 297106
28 | 66:01.32 | 2:09.65 | 297107 | 306846
29 | 68:11.22 | 2:45.40 | 306847 | 319261
30 | 70:56.62 | 1:10.00 | 319262 | 324511
31 | 72:06.62 | 2:00.60 | 324512 | 333571
32 | 74:07.47 | 2:02.08 | 333572 | 342729


Range status and errors

Selected range

Filename D:\Bach - Goldberg Variations_Alan Curtis, hpschd\Goldberg-Variationen, BWV 988.wav

Peak level 99.6 %
Extraction speed 5.2 X
Range quality 100.0 %
Test CRC BFCA8536
Copy CRC BFCA8536
Copy OK

No errors occurred


AccurateRip summary

Track 1 accurately ripped (confidence 7) [13CDE3E1] (AR v2)
Track 2 accurately ripped (confidence 8) [C9743A86] (AR v2)
Track 3 accurately ripped (confidence 8) [0AF12385] (AR v2)
Track 4 accurately ripped (confidence 8) [5819E665] (AR v2)
Track 5 accurately ripped (confidence 8) [1F512DEB] (AR v2)
Track 6 accurately ripped (confidence 8) [E639A0FD] (AR v2)
Track 7 accurately ripped (confidence 8) [C2CC4223] (AR v2)
Track 8 accurately ripped (confidence 8) [4EF73741] (AR v2)
Track 9 accurately ripped (confidence 8) [11D133EE] (AR v2)
Track 10 accurately ripped (confidence 8) [6E04E72C] (AR v2)
Track 11 accurately ripped (confidence 8) [D9C3EB75] (AR v2)
Track 12 accurately ripped (confidence 8) [26F31232] (AR v2)
Track 13 accurately ripped (confidence 8) [3AD27D58] (AR v2)
Track 14 accurately ripped (confidence 8) [E5E319F2] (AR v2)
Track 15 accurately ripped (confidence 8) [A475FD95] (AR v2)
Track 16 accurately ripped (confidence 7) [28A7ABBE] (AR v2)
Track 17 accurately ripped (confidence 7) [6E0AD3EB] (AR v2)
Track 18 accurately ripped (confidence 7) [BEB95C85] (AR v2)
Track 19 accurately ripped (confidence 7) [72E54E21] (AR v2)
Track 20 accurately ripped (confidence 7) [C845756B] (AR v2)
Track 21 accurately ripped (confidence 7) [8F738D94] (AR v2)
Track 22 accurately ripped (confidence 7) [C5B01743] (AR v2)
Track 23 accurately ripped (confidence 7) [BF2B5538] (AR v2)
Track 24 accurately ripped (confidence 7) [D95E256D] (AR v2)
Track 25 accurately ripped (confidence 7) [707BCCC4] (AR v2)
Track 26 accurately ripped (confidence 7) [62554AAD] (AR v2)
Track 27 accurately ripped (confidence 7) [3047831D] (AR v2)
Track 28 accurately ripped (confidence 7) [2F68FAF9] (AR v2)
Track 29 accurately ripped (confidence 7) [3509FC27] (AR v2)
Track 30 accurately ripped (confidence 7) [5AF74CDC] (AR v2)
Track 31 accurately ripped (confidence 7) [F20847D3] (AR v2)
Track 32 accurately ripped (confidence 7) [EAE9D2FA] (AR v2)

All tracks accurately ripped

End of status report

–– CUETools DB Plugin V2.1.6

[CTDB TOCID: JeYxy6IFMnO4eqLlBDTU_MYW84Q-] found
Submit result: JeYxy6IFMnO4eqLlBDTU_MYW84Q- has been confirmed
Track | CTDB Status
1 | (4/4) Accurately ripped
2 | (4/4) Accurately ripped
3 | (4/4) Accurately ripped
4 | (4/4) Accurately ripped
5 | (4/4) Accurately ripped
6 | (4/4) Accurately ripped
7 | (4/4) Accurately ripped
8 | (4/4) Accurately ripped
9 | (4/4) Accurately ripped
10 | (4/4) Accurately ripped
11 | (4/4) Accurately ripped
12 | (4/4) Accurately ripped
13 | (4/4) Accurately ripped
14 | (4/4) Accurately ripped
15 | (4/4) Accurately ripped
16 | (4/4) Accurately ripped
17 | (4/4) Accurately ripped
18 | (4/4) Accurately ripped
19 | (4/4) Accurately ripped
20 | (4/4) Accurately ripped
21 | (4/4) Accurately ripped
22 | (4/4) Accurately ripped
23 | (4/4) Accurately ripped
24 | (4/4) Accurately ripped
25 | (4/4) Accurately ripped
26 | (4/4) Accurately ripped
27 | (4/4) Accurately ripped
28 | (4/4) Accurately ripped
29 | (4/4) Accurately ripped
30 | (4/4) Accurately ripped
31 | (4/4) Accurately ripped
32 | (4/4) Accurately ripped


==== Log checksum 83C8EF2B6041DC3285FDA489E5A77F6822FC4E04EE573655725E4442626AAD85 ====

Alan Curtis - Johann Sebastian Bach: Goldberg-Variationen, BWV 988 (1989)

Thanks to the original releaser