Tags
Language
Tags

Alan Curtis, Il Complesso Barocco - Gluck: Demofoonte (2020)

Posted By: ArlegZ
Alan Curtis, Il Complesso Barocco - Gluck: Demofoonte (2020)

Alan Curtis, Il Complesso Barocco - Gluck: Demofoonte (2020)
EAC | FLAC | Tracks (Cue & Log) ~ 1.10 Gb | Total time: 192:17 | Scans included
Classical | Label: Brilliant Classics | 95283 | Recorded: 2014, 2015

Demofoonte dates from the early Milan years of Christoph Willibald Gluck (1714-1787), long before the radical reform operas for which he is most famous and his break with opera seria and the librettos of Pietro Metastasio. Gluck arrived in the northern Italian city in 1737 and was mentored there by composer Giovanni Battista Sammartini. Though Sammartini primarily composed symphonies and music for the church, Milan boasted a vibrant opera scene, and Gluck soon formed an association with one of the city's up-and-coming opera houses, the Teatro Regio Ducal. His first opera, Artaserse, on a libretto by Metastasio, premiered there on 26 December 1741 and opened the Milanese Carnival of 1742. Gluck went on to compose an opera for each of the next four Carnivals at Milan, Demofoonte being the second of these and his third opera overall, premiering on 6 January 1743. In celebration of Glucks 300th birthday, the early music scholar and harpsichordist Alan Curtis (1934-2015), founder of Il Complesso Barocco and leader of the period music ensemble for nearly four decades, prepared Demofoonte for performance. All of the arias had been preserved, but nearly all of the secco recitatives were lost. Curtis composed new recitatives in Gluck's style, using Glucks earliest fully extant opera, Ipermestra, written less than two years after Demofoonte, as a model. This modern revival was given its first performance on 23 November 2014 in Vienna and was recorded with the same excellent cast of singers the week before, in Northern Italy.

Performer:
Demofoonte - Colin Balzer
Dircea - Sylvia Schwartz
Creusa - Ann Hallenberg
Timante - Aryeh Nussbaum Cohen
Cherinto - Romina Basso
Matusio - Vittorio Prato
Adrasto - Nerea Berraondo
Il Complesso Barocco
Conductor - Alan Curtis

Track List:
CD1:
01. Sinfonia: I. Allegro
02. Sinfonia: II. Andante
03. Sinfonia: III. Presto
04. Atto I. Scena 1: Credimi, o padre … (Dircea · Matusio)
05. Scena 1: O più tremar non voglio (Matusio)
06. Scena 2: Se il mio principe almeno … (Dircea · Timante)
07. Scena 2: In te spero, o sposo amato (Dircea)
08. Scena 3: Ma viene il real genitor … (Timante · Demofoonte · Adrasto)
09. Scena 3: Per lei fra l’armi (Demofoonte)
10. Scena 4: Ma che vi fece, o stelle …
11. Scena 4: Sperai vicino al lido (Timante)
12. Scena 5: Marcia
13. Scena 5: Ma che t’affanna, o prence? … (Creusa · Cherinto)
14. Scena 5: T’intendo, ingrata (Cherinto)
15. Scena 6: Dove? Ferma (Creusa · Cherinto) Dimmi cherinto. È questa la frigia principessa? (Timante · Cherinto · Creusa) / Scena 7: Numi! A Creusa?’ … (Creusa · Cherinto)
16. Scena 7: Non curo l’affetto (Creusa)
17. Scena 8: Oh dei! Perché tanto furor! …
18. Scena 8: Il suo leggiadro viso (Cherinto)
19. Scena 9: Olà ministri … (Adrasto · Matusio · Timante · Dircea)
20. Scena 9: Padre, perdona… oh pene! (Dircea)
21. Scena 10: Appresso a lei … (Timante · Matusio)
22. Scena 10: Gemo in un punto e fremo (Timante)
CD2:
01. Atto II. Scena 1. Creusa intendo … (Demofoonte · Creusa · Adrastro)
02. Scena 1: Tu sai chi son (Creusa)
03. Scena 2: Che alterezza ha costei! … (Demofoonte · Timante)
04. Scena 2: Prudente mi chiedi? (Timante)
05. Scena 3: Dunque m’insulta ognun? …
06. Scena 3: Se tronca un ramo (Demofoonte)
07. Scena 4: È l’unica speranza… … (Matusio · Timante)
08. Scena 4: È soccorso d’incognita mano (Matusio)
09. Scena 5: Ah principessa … (Dircea · Creusa)
10. Scena 5: Se tutti i mali miei (Dircea)
11. Scena 6: Che incanto è la beltà! (Creusa · Cherinto)
12. Scena 6: No, non chiedo, amate stelle (Cherinto)
13. Scena 7: Se immaginar potessi …
14. Scena 7: Felice età dell’oro (Creusa)
15. Scena 8: Santi numi del cielo … (Dircea · Timante) / Scena 9: Indegno. Non fuggirmi. T’arresta … (Demofoonte · Timante · Dircea)
16. Scena 9: Perfidi! Già che in vita (Demofoonte)
17. Scena 10: Sposo/Consorte …
18. Scena 10: La destra ti chiedo (Dircea · Timante)
CD3:
01. Atto III. Scena 1: Taci … (Timante · Adrasto)
02. Scena 1: Non odi consiglio? (Adrasto)
03. Scena 2: Perché bramar la vita? … (Timante · Cherinto)
04. Scena 2: Nel tuo dono io veggo assai (Cherinto)
05. Scena 3: Oh figlio, oh sposa … (Timante · Matusio)
06. Scena 3: Ah che né mal verace (Matusio)
07. Scena 4: Misero me! (Timante)
08. Scena 5: Timante/‘Ah, principessa …
09. Scena 5: Misero pargoletto (Timante)
10. Scena 6: Sieguilo, Adrasto …
11. Scena 6: Odo il suono de queruli accenti (Demofoonte)
12. Scena 7: E tu Dircea, che fai? … (Creusa)
13. Scena 7: Che mai risponderti (Dircea)
14. Scena 8: Qual terra è questa! …
15. Scena 8: Non dura una sventura (Creusa)
16. Scena 9: Il re per tutto ti ricerca (Adrasto · Timante · Matusio · Dircea) / Scena 10: Non t’ingannan, Timante (Demofoonte · Timante)
17. Scena 11: Par maggiore ogni diletto (Coro)


Exact Audio Copy V1.5 from 20. February 2020

EAC extraction logfile from 20. January 2021, 17:13

Alan Curtis, Il Complezzo Barocco / Gluck - Demofoonte CD1

Used drive : HL-DT-STDVDRAM GH24NS95 Adapter: 1 ID: 0

Read mode : Secure
Utilize accurate stream : Yes
Defeat audio cache : Yes
Make use of C2 pointers : No

Read offset correction : 6
Overread into Lead-In and Lead-Out : No
Fill up missing offset samples with silence : Yes
Delete leading and trailing silent blocks : No
Null samples used in CRC calculations : Yes
Used interface : Native Win32 interface for Win NT & 2000
Gap handling : Not detected, thus appended to previous track

Used output format : User Defined Encoder
Selected bitrate : 128 kBit/s
Quality : High
Add ID3 tag : No
Command line compressor : C:\Program Files\Exact Audio Copy\Flac\flac.exe
Additional command line options : -V -8 -T "Date=%year%" -T "Genre=%genre%" %source%


TOC of the extracted CD

Track | Start | Length | Start sector | End sector
––––––––––––––––––––––––––––-
1 | 0:00.00 | 1:50.13 | 0 | 8262
2 | 1:50.13 | 1:46.26 | 8263 | 16238
3 | 3:36.39 | 1:05.45 | 16239 | 21158
4 | 4:42.09 | 1:53.48 | 21159 | 29681
5 | 6:35.57 | 5:16.10 | 29682 | 53391
6 | 11:51.67 | 4:50.44 | 53392 | 75185
7 | 16:42.36 | 8:04.26 | 75186 | 111511
8 | 24:46.62 | 3:56.42 | 111512 | 129253
9 | 28:43.29 | 4:29.17 | 129254 | 149445
10 | 33:12.46 | 0:38.63 | 149446 | 152358
11 | 33:51.34 | 8:00.08 | 152359 | 188366
12 | 41:51.42 | 1:10.21 | 188367 | 193637
13 | 43:01.63 | 2:02.49 | 193638 | 202836
14 | 45:04.37 | 3:50.53 | 202837 | 220139
15 | 48:55.15 | 2:56.23 | 220140 | 233362
16 | 51:51.38 | 4:06.69 | 233363 | 251881
17 | 55:58.32 | 0:43.73 | 251882 | 255179
18 | 56:42.30 | 5:02.74 | 255180 | 277903
19 | 61:45.29 | 0:35.61 | 277904 | 280589
20 | 62:21.15 | 4:23.37 | 280590 | 300351
21 | 66:44.52 | 0:31.65 | 300352 | 302741
22 | 67:16.42 | 6:09.05 | 302742 | 330421


Track 1

Filename C:\ArlegZ\01 Sinfonia- I. Allegro.wav

Peak level 92.5 %
Extraction speed 0.9 X
Track quality 100.0 %
Test CRC D0BB4451
Copy CRC D0BB4451
Track not present in AccurateRip database
Copy OK

Track 2

Filename C:\ArlegZ\02 Sinfonia- II. Andante.wav

Peak level 78.2 %
Extraction speed 1.0 X
Track quality 100.0 %
Test CRC 1F2D5DF5
Copy CRC 1F2D5DF5
Track not present in AccurateRip database
Copy OK

Track 3

Filename C:\ArlegZ\03 Sinfonia- III. Presto.wav

Peak level 92.4 %
Extraction speed 0.8 X
Track quality 100.0 %
Test CRC B40C3B4D
Copy CRC B40C3B4D
Track not present in AccurateRip database
Copy OK

Track 4

Filename C:\ArlegZ\04 Atto I. Scena 1- Credimi, o padre … (Dircea · Matusio).wav

Peak level 92.3 %
Extraction speed 1.0 X
Track quality 100.0 %
Test CRC C16D0181
Copy CRC C16D0181
Track not present in AccurateRip database
Copy OK

Track 5

Filename C:\ArlegZ\05 Scena 1- O più tremar non voglio (Matusio).wav

Peak level 92.6 %
Extraction speed 1.3 X
Track quality 100.0 %
Test CRC 33E660F3
Copy CRC 33E660F3
Track not present in AccurateRip database
Copy OK

Track 6

Filename C:\ArlegZ\06 Scena 2- Se il mio principe almeno … (Dircea · Timante).wav

Peak level 92.3 %
Extraction speed 1.4 X
Track quality 100.0 %
Test CRC E9A7B939
Copy CRC E9A7B939
Track not present in AccurateRip database
Copy OK

Track 7

Filename C:\ArlegZ\07 Scena 2- In te spero, o sposo amato (Dircea).wav

Peak level 92.4 %
Extraction speed 1.7 X
Track quality 100.0 %
Test CRC 3AB1C4C5
Copy CRC 3AB1C4C5
Track not present in AccurateRip database
Copy OK

Track 8

Filename C:\ArlegZ\08 Scena 3- Ma viene il real genitor … (Timante · Demofoonte · Adrasto).wav

Peak level 92.3 %
Extraction speed 1.6 X
Track quality 100.0 %
Test CRC 26F6A13D
Copy CRC 26F6A13D
Track not present in AccurateRip database
Copy OK

Track 9

Filename C:\ArlegZ\09 Scena 3- Per lei fra l’armi (Demofoonte).wav

Peak level 92.5 %
Extraction speed 1.6 X
Track quality 99.9 %
Test CRC CB402DC4
Copy CRC CB402DC4
Track not present in AccurateRip database
Copy OK

Track 10

Filename C:\ArlegZ\10 Scena 4- Ma che vi fece, o stelle ….wav

Peak level 92.1 %
Extraction speed 0.7 X
Track quality 99.7 %
Test CRC A7DF47C3
Copy CRC A7DF47C3
Track not present in AccurateRip database
Copy OK

Track 11

Filename C:\ArlegZ\11 Scena 4- Sperai vicino al lido (Timante).wav

Peak level 92.4 %
Extraction speed 2.0 X
Track quality 100.0 %
Test CRC A5F30F01
Copy CRC A5F30F01
Track not present in AccurateRip database
Copy OK

Track 12

Filename C:\ArlegZ\12 Scena 5- Marcia.wav

Peak level 92.6 %
Extraction speed 1.4 X
Track quality 100.0 %
Test CRC A5A9B5D2
Copy CRC A5A9B5D2
Track not present in AccurateRip database
Copy OK

Track 13

Filename C:\ArlegZ\13 Scena 5- Ma che t’affanna, o prence … (Creusa · Cherinto).wav

Peak level 92.2 %
Extraction speed 1.7 X
Track quality 100.0 %
Test CRC 5B1B19CD
Copy CRC 5B1B19CD
Track not present in AccurateRip database
Copy OK

Track 14

Filename C:\ArlegZ\14 Scena 5- T’intendo, ingrata (Cherinto).wav

Peak level 92.5 %
Extraction speed 1.7 X
Track quality 99.9 %
Test CRC 365586FE
Copy CRC 365586FE
Track not present in AccurateRip database
Copy OK

Track 15

Filename C:\ArlegZ\15 Scena 6- Dove Ferma (Creusa · Cherinto) Dimmi cherinto. È questa la frigia principessa (Timante · Cherinto · Creusa).wav

Peak level 92.3 %
Extraction speed 1.7 X
Track quality 99.9 %
Test CRC 341D5911
Copy CRC 341D5911
Track not present in AccurateRip database
Copy OK

Track 16

Filename C:\ArlegZ\16 Scena 7- Non curo l’affetto (Creusa).wav

Peak level 92.5 %
Extraction speed 2.1 X
Track quality 100.0 %
Test CRC D75F6550
Copy CRC D75F6550
Track not present in AccurateRip database
Copy OK

Track 17

Filename C:\ArlegZ\17 Scena 8- Oh dei! Perché tanto furor! ….wav

Peak level 92.2 %
Extraction speed 1.3 X
Track quality 100.0 %
Test CRC 86CABA73
Copy CRC 86CABA73
Track not present in AccurateRip database
Copy OK

Track 18

Filename C:\ArlegZ\18 Scena 8- Il suo leggiadro viso (Cherinto).wav

Peak level 92.5 %
Extraction speed 2.2 X
Track quality 100.0 %
Test CRC BAE5645D
Copy CRC BAE5645D
Track not present in AccurateRip database
Copy OK

Track 19

Filename C:\ArlegZ\19 Scena 9- Olà ministri … (Adrasto · Matusio · Timante · Dircea).wav

Peak level 92.3 %
Extraction speed 0.8 X
Track quality 99.7 %
Test CRC D37BC5A4
Copy CRC D37BC5A4
Track not present in AccurateRip database
Copy OK

Track 20

Filename C:\ArlegZ\20 Scena 9- Padre, perdona… oh pene! (Dircea).wav

Peak level 92.4 %
Extraction speed 2.3 X
Track quality 100.0 %
Test CRC A77C2EC9
Copy CRC A77C2EC9
Track not present in AccurateRip database
Copy OK

Track 21

Filename C:\ArlegZ\21 Scena 10- Appresso a lei … (Timante · Matusio).wav

Peak level 92.3 %
Extraction speed 0.7 X
Track quality 99.6 %
Test CRC B8989417
Copy CRC B8989417
Track not present in AccurateRip database
Copy OK

Track 22

Filename C:\ArlegZ\22 Scena 10- Gemo in un punto e fremo (Timante).wav

Peak level 93.0 %
Extraction speed 2.4 X
Track quality 100.0 %
Test CRC CEDB9B8F
Copy CRC CEDB9B8F
Track not present in AccurateRip database
Copy OK


None of the tracks are present in the AccurateRip database

No errors occurred

End of status report

–– CUETools DB Plugin V2.1.6

[CTDB TOCID: wCWAL0YsSpHVcZtR6cj5OM4cCfM-] found
Submit result: wCWAL0YsSpHVcZtR6cj5OM4cCfM- has been confirmed
Track | CTDB Status
1 | (2/2) Accurately ripped
2 | (2/2) Accurately ripped
3 | (2/2) Accurately ripped
4 | (2/2) Accurately ripped
5 | (2/2) Accurately ripped
6 | (2/2) Accurately ripped
7 | (2/2) Accurately ripped
8 | (2/2) Accurately ripped
9 | (2/2) Accurately ripped
10 | (2/2) Accurately ripped
11 | (2/2) Accurately ripped
12 | (2/2) Accurately ripped
13 | (2/2) Accurately ripped
14 | (2/2) Accurately ripped
15 | (2/2) Accurately ripped
16 | (2/2) Accurately ripped
17 | (2/2) Accurately ripped
18 | (2/2) Accurately ripped
19 | (2/2) Accurately ripped
20 | (2/2) Accurately ripped
21 | (2/2) Accurately ripped
22 | (2/2) Accurately ripped


==== Log checksum 29EB7951C15EE1FFC2F3E0DA101F6322F89B75228415EA440803C06E881C670D ====


Exact Audio Copy V1.5 from 20. February 2020

EAC extraction logfile from 20. January 2021, 18:38

Alan Curtis, Il Complesso Barocco / Gluck - Demofoonte CD2

Used drive : HL-DT-STDVDRAM GH24NS95 Adapter: 1 ID: 0

Read mode : Secure
Utilize accurate stream : Yes
Defeat audio cache : Yes
Make use of C2 pointers : No

Read offset correction : 6
Overread into Lead-In and Lead-Out : No
Fill up missing offset samples with silence : Yes
Delete leading and trailing silent blocks : No
Null samples used in CRC calculations : Yes
Used interface : Native Win32 interface for Win NT & 2000
Gap handling : Not detected, thus appended to previous track

Used output format : User Defined Encoder
Selected bitrate : 128 kBit/s
Quality : High
Add ID3 tag : No
Command line compressor : C:\Program Files\Exact Audio Copy\Flac\flac.exe
Additional command line options : -V -8 -T "Date=%year%" -T "Genre=%genre%" %source%


TOC of the extracted CD

Track | Start | Length | Start sector | End sector
––––––––––––––––––––––––––––-
1 | 0:00.00 | 0:58.32 | 0 | 4381
2 | 0:58.32 | 6:04.05 | 4382 | 31686
3 | 7:02.37 | 3:56.43 | 31687 | 49429
4 | 10:59.05 | 3:16.01 | 49430 | 64130
5 | 14:15.06 | 0:25.44 | 64131 | 66049
6 | 14:40.50 | 7:13.60 | 66050 | 98584
7 | 21:54.35 | 0:35.29 | 98585 | 101238
8 | 22:29.64 | 3:42.58 | 101239 | 117946
9 | 26:12.47 | 1:15.10 | 117947 | 123581
10 | 27:27.57 | 6:46.12 | 123582 | 154043
11 | 34:13.69 | 1:40.20 | 154044 | 161563
12 | 35:54.14 | 5:16.49 | 161564 | 185312
13 | 41:10.63 | 0:20.51 | 185313 | 186863
14 | 41:31.39 | 5:05.02 | 186864 | 209740
15 | 46:36.41 | 4:18.15 | 209741 | 229105
16 | 50:54.56 | 2:52.51 | 229106 | 242056
17 | 53:47.32 | 3:00.23 | 242057 | 255579
18 | 56:47.55 | 9:32.07 | 255580 | 298486


Track 1

Filename C:\ArlegZ\01 Atto II. Scena 1. Creusa intendo … (Demofoonte · Creusa · Adrastro).wav

Peak level 92.3 %
Extraction speed 0.6 X
Track quality 99.8 %
Test CRC 825D0F1A
Copy CRC 825D0F1A
Track not present in AccurateRip database
Copy OK

Track 2

Filename C:\ArlegZ\02 Scena 1- Tu sai chi son (Creusa).wav

Peak level 92.3 %
Extraction speed 1.9 X
Track quality 100.0 %
Test CRC 37A15355
Copy CRC 37A15355
Track not present in AccurateRip database
Copy OK

Track 3

Filename C:\ArlegZ\03 Scena 2- Che alterezza ha costei! … (Demofoonte · Timante).wav

Peak level 92.3 %
Extraction speed 2.0 X
Track quality 100.0 %
Test CRC E44A8807
Copy CRC E44A8807
Track not present in AccurateRip database
Copy OK

Track 4

Filename C:\ArlegZ\04 Scena 2- Prudente mi chiedi (Timante).wav

Peak level 92.5 %
Extraction speed 2.1 X
Track quality 100.0 %
Test CRC 9193F46A
Copy CRC 9193F46A
Track not present in AccurateRip database
Copy OK

Track 5

Filename C:\ArlegZ\05 Scena 3- Dunque m’insulta ognun ….wav

Peak level 92.6 %
Extraction speed 0.3 X
Track quality 99.5 %
Test CRC FFD866AE
Copy CRC FFD866AE
Track not present in AccurateRip database
Copy OK

Track 6

Filename C:\ArlegZ\06 Scena 3- Se tronca un ramo (Demofoonte).wav

Peak level 92.3 %
Extraction speed 2.5 X
Track quality 100.0 %
Test CRC 77B0C762
Copy CRC 77B0C762
Track not present in AccurateRip database
Copy OK

Track 7

Filename C:\ArlegZ\07 Scena 4- E l’unica speranza… … (Matusio · Timante).wav

Peak level 92.3 %
Extraction speed 1.3 X
Track quality 100.0 %
Test CRC FEDEE41C
Copy CRC FEDEE41C
Track not present in AccurateRip database
Copy OK

Track 8

Filename C:\ArlegZ\08 Scena 4- E soccorso d’incognita mano (Matusio).wav

Peak level 92.4 %
Extraction speed 1.9 X
Track quality 99.9 %
Test CRC 3132CEA2
Copy CRC 3132CEA2
Track not present in AccurateRip database
Copy OK

Track 9

Filename C:\ArlegZ\09 Scena 5- Ah principessa … (Dircea · Creusa).wav

Peak level 92.3 %
Extraction speed 1.2 X
Track quality 100.0 %
Test CRC BB81FD10
Copy CRC BB81FD10
Track not present in AccurateRip database
Copy OK

Track 10

Filename C:\ArlegZ\10 Scena 5- Se tutti i mali miei (Dircea).wav

Peak level 92.3 %
Extraction speed 1.7 X
Track quality 100.0 %
Test CRC A183DB9C
Copy CRC A183DB9C
Track not present in AccurateRip database
Copy OK

Track 11

Filename C:\ArlegZ\11 Scena 6- Che incanto e la belta! (Creusa · Cherinto).wav

Peak level 88.6 %
Extraction speed 1.1 X
Track quality 99.8 %
Test CRC FFEA876F
Copy CRC FFEA876F
Track not present in AccurateRip database
Copy OK

Track 12

Filename C:\ArlegZ\12 Scena 6- No, non chiedo, amate stelle (Cherinto).wav

Peak level 92.4 %
Extraction speed 1.8 X
Track quality 100.0 %
Test CRC B4F276A2
Copy CRC B4F276A2
Track not present in AccurateRip database
Copy OK

Track 13

Filename C:\ArlegZ\13 Scena 7- Se immaginar potessi ….wav

Peak level 70.9 %
Extraction speed 0.7 X
Track quality 100.0 %
Test CRC 1A80B557
Copy CRC 1A80B557
Track not present in AccurateRip database
Copy OK

Track 14

Filename C:\ArlegZ\14 Scena 7- Felice eta dell’oro (Creusa).wav

Peak level 92.4 %
Extraction speed 1.9 X
Track quality 100.0 %
Test CRC BA5B0570
Copy CRC BA5B0570
Track not present in AccurateRip database
Copy OK

Track 15

Filename C:\ArlegZ\15 Scena 8- Santi numi del cielo … (Dircea · Timante).wav

Peak level 92.3 %
Extraction speed 1.9 X
Track quality 100.0 %
Test CRC B320DD20
Copy CRC B320DD20
Track not present in AccurateRip database
Copy OK

Track 16

Filename C:\ArlegZ\16 Scena 9- Perfidi! Gia che in vita (Demofoonte).wav

Peak level 92.5 %
Extraction speed 1.9 X
Track quality 100.0 %
Test CRC 1D75BC18
Copy CRC 1D75BC18
Track not present in AccurateRip database
Copy OK

Track 17

Filename C:\ArlegZ\17 Scena 10- Sposo,Consorte ….wav

Peak level 92.2 %
Extraction speed 1.9 X
Track quality 100.0 %
Test CRC 59617483
Copy CRC 59617483
Track not present in AccurateRip database
Copy OK

Track 18

Filename C:\ArlegZ\18 Scena 10- La destra ti chiedo (Dircea · Timante).wav

Peak level 92.5 %
Extraction speed 2.3 X
Track quality 100.0 %
Test CRC FEAF0273
Copy CRC FEAF0273
Track not present in AccurateRip database
Copy OK


None of the tracks are present in the AccurateRip database

No errors occurred

End of status report

–– CUETools DB Plugin V2.1.6

[CTDB TOCID: 5K_59mN.JfpaIkOafc3QUKOCSQA-] found
Submit result: 5K_59mN.JfpaIkOafc3QUKOCSQA- has been confirmed
Track | CTDB Status
1 | (2/2) Accurately ripped
2 | (2/2) Accurately ripped
3 | (2/2) Accurately ripped
4 | (2/2) Accurately ripped
5 | (2/2) Accurately ripped
6 | (2/2) Accurately ripped
7 | (2/2) Accurately ripped
8 | (2/2) Accurately ripped
9 | (2/2) Accurately ripped
10 | (2/2) Accurately ripped
11 | (2/2) Accurately ripped
12 | (2/2) Accurately ripped
13 | (2/2) Accurately ripped
14 | (2/2) Accurately ripped
15 | (2/2) Accurately ripped
16 | (2/2) Accurately ripped
17 | (2/2) Accurately ripped
18 | (2/2) Accurately ripped


==== Log checksum 21B77343E57A1C52BAE921DC2051F10D6CF403309FBE62457A4CF6B50F573297 ====


Exact Audio Copy V1.5 from 20. February 2020

EAC extraction logfile from 20. January 2021, 19:48

Alan Curtis, Il Complesso Barocco / Gluck - Demofoonte CD3

Used drive : HL-DT-STDVDRAM GH24NS95 Adapter: 1 ID: 0

Read mode : Secure
Utilize accurate stream : Yes
Defeat audio cache : Yes
Make use of C2 pointers : No

Read offset correction : 6
Overread into Lead-In and Lead-Out : No
Fill up missing offset samples with silence : Yes
Delete leading and trailing silent blocks : No
Null samples used in CRC calculations : Yes
Used interface : Native Win32 interface for Win NT & 2000
Gap handling : Not detected, thus appended to previous track

Used output format : User Defined Encoder
Selected bitrate : 128 kBit/s
Quality : High
Add ID3 tag : No
Command line compressor : C:\Program Files\Exact Audio Copy\Flac\flac.exe
Additional command line options : -V -8 -T "Date=%year%" -T "Genre=%genre%" %source%


TOC of the extracted CD

Track | Start | Length | Start sector | End sector
––––––––––––––––––––––––––––-
1 | 0:00.00 | 0:53.26 | 0 | 4000
2 | 0:53.26 | 4:02.23 | 4001 | 22173
3 | 4:55.49 | 3:42.25 | 22174 | 38848
4 | 8:37.74 | 6:31.13 | 38849 | 68186
5 | 15:09.12 | 3:03.28 | 68187 | 81939
6 | 18:12.40 | 3:17.42 | 81940 | 96756
7 | 21:30.07 | 2:24.38 | 96757 | 107594
8 | 23:54.45 | 1:46.31 | 107595 | 115575
9 | 25:41.01 | 6:37.33 | 115576 | 145383
10 | 32:18.34 | 0:44.21 | 145384 | 148704
11 | 33:02.55 | 4:53.60 | 148705 | 170739
12 | 37:56.40 | 0:40.23 | 170740 | 173762
13 | 38:36.63 | 4:01.03 | 173763 | 191840
14 | 42:37.66 | 0:31.34 | 191841 | 194199
15 | 43:09.25 | 5:45.30 | 194200 | 220104
16 | 48:54.55 | 2:56.06 | 220105 | 233310
17 | 51:50.61 | 0:37.00 | 233311 | 236085


Track 1

Filename C:\ArlegZ\01 Atto III. Scena 1- Taci … (Timante · Adrasto).wav

Peak level 92.3 %
Extraction speed 1.1 X
Track quality 100.0 %
Test CRC 3CEA4B67
Copy CRC 3CEA4B67
Track not present in AccurateRip database
Copy OK

Track 2

Filename C:\ArlegZ\02 Scena 1- Non odi consiglio (Adrasto).wav

Peak level 92.5 %
Extraction speed 1.8 X
Track quality 100.0 %
Test CRC 14A95D40
Copy CRC 14A95D40
Track not present in AccurateRip database
Copy OK

Track 3

Filename C:\ArlegZ\03 Scena 2- Perche bramar la vita … (Timante · Cherinto).wav

Peak level 92.3 %
Extraction speed 2.0 X
Track quality 100.0 %
Test CRC 3755782D
Copy CRC 3755782D
Track not present in AccurateRip database
Copy OK

Track 4

Filename C:\ArlegZ\04 Scena 2- Nel tuo dono io veggo assai (Cherinto).wav

Peak level 92.3 %
Extraction speed 2.3 X
Track quality 100.0 %
Test CRC 46C87592
Copy CRC 46C87592
Track not present in AccurateRip database
Copy OK

Track 5

Filename C:\ArlegZ\05 Scena 3- Oh figlio, oh sposa … (Timante · Matusio).wav

Peak level 92.3 %
Extraction speed 2.3 X
Track quality 100.0 %
Test CRC 72D98DEF
Copy CRC 72D98DEF
Track not present in AccurateRip database
Copy OK

Track 6

Filename C:\ArlegZ\06 Scena 3- Ah che ne mal verace (Matusio).wav

Peak level 92.5 %
Extraction speed 1.7 X
Track quality 99.9 %
Test CRC 26EEECDA
Copy CRC 26EEECDA
Track not present in AccurateRip database
Copy OK

Track 7

Filename C:\ArlegZ\07 Scena 4- Misero me! (Timante).wav

Peak level 92.4 %
Extraction speed 2.4 X
Track quality 100.0 %
Test CRC EC28322E
Copy CRC EC28322E
Track not present in AccurateRip database
Copy OK

Track 8

Filename C:\ArlegZ\08 Scena 5- Timante,‘Ah, principessa ….wav

Peak level 92.3 %
Extraction speed 1.4 X
Track quality 100.0 %
Test CRC BCD0D3DB
Copy CRC BCD0D3DB
Track not present in AccurateRip database
Copy OK

Track 9

Filename C:\ArlegZ\09 Scena 5- Misero pargoletto (Timante).wav

Peak level 92.3 %
Extraction speed 1.7 X
Track quality 100.0 %
Test CRC F155B289
Copy CRC F155B289
Track not present in AccurateRip database
Copy OK

Track 10

Filename C:\ArlegZ\10 Scena 6- Sieguilo, Adrasto ….wav

Peak level 92.3 %
Extraction speed 1.1 X
Track quality 100.0 %
Test CRC BC71371C
Copy CRC BC71371C
Track not present in AccurateRip database
Copy OK

Track 11

Filename C:\ArlegZ\11 Scena 6- Odo il suono de queruli accenti (Demofoonte).wav

Peak level 92.7 %
Extraction speed 1.6 X
Track quality 99.9 %
Test CRC 37058E27
Copy CRC 37058E27
Track not present in AccurateRip database
Copy OK

Track 12

Filename C:\ArlegZ\12 Scena 7- E tu Dircea, che fai … (Creusa).wav

Peak level 92.3 %
Extraction speed 1.0 X
Track quality 100.0 %
Test CRC 1E1755E5
Copy CRC 1E1755E5
Track not present in AccurateRip database
Copy OK

Track 13

Filename C:\ArlegZ\13 Scena 7- Che mai risponderti (Dircea).wav

Peak level 92.7 %
Extraction speed 1.6 X
Track quality 99.9 %
Test CRC 7248B5BB
Copy CRC 7248B5BB
Track not present in AccurateRip database
Copy OK

Track 14

Filename C:\ArlegZ\14 Scena 8- Qual terra e questa! ….wav

Peak level 92.2 %
Extraction speed 0.9 X
Track quality 100.0 %
Test CRC 91FC7B31
Copy CRC 91FC7B31
Track not present in AccurateRip database
Copy OK

Track 15

Filename C:\ArlegZ\15 Scena 8- Non dura una sventura (Creusa).wav

Peak level 92.8 %
Extraction speed 2.0 X
Track quality 100.0 %
Test CRC D6DE4908
Copy CRC D6DE4908
Track not present in AccurateRip database
Copy OK

Track 16

Filename C:\ArlegZ\16 Scena 9- Il re per tutto ti ricerca (Adrasto · Timante · Matusio · Dircea).wav

Peak level 92.3 %
Extraction speed 1.9 X
Track quality 100.0 %
Test CRC 8774F6C0
Copy CRC 8774F6C0
Track not present in AccurateRip database
Copy OK

Track 17

Filename C:\ArlegZ\17 Scena 11- Par maggiore ogni diletto (Coro).wav

Peak level 92.5 %
Extraction speed 1.1 X
Track quality 100.0 %
Test CRC C625548C
Copy CRC C625548C
Track not present in AccurateRip database
Copy OK


None of the tracks are present in the AccurateRip database

No errors occurred

End of status report

–– CUETools DB Plugin V2.1.6

[CTDB TOCID: OTuJb7WxmGEHTk0Rb_R0Io.LtWk-] found
Submit result: OTuJb7WxmGEHTk0Rb_R0Io.LtWk- has been confirmed
Track | CTDB Status
1 | (2/2) Accurately ripped
2 | (2/2) Accurately ripped
3 | (2/2) Accurately ripped
4 | (2/2) Accurately ripped
5 | (2/2) Accurately ripped
6 | (2/2) Accurately ripped
7 | (2/2) Accurately ripped
8 | (2/2) Accurately ripped
9 | (2/2) Accurately ripped
10 | (2/2) Accurately ripped
11 | (2/2) Accurately ripped
12 | (2/2) Accurately ripped
13 | (2/2) Accurately ripped
14 | (2/2) Accurately ripped
15 | (2/2) Accurately ripped
16 | (2/2) Accurately ripped
17 | (2/2) Accurately ripped


==== Log checksum 7D3A7F1966198E06FD38357587CCE2E74D33D190BFECE1ADE54CBF95EDC4D653 ====

Alan Curtis, Il Complesso Barocco - Gluck: Demofoonte (2020)