Tags
Language
Tags

Alan Curtis, Il Complesso Barocco - Handel: Giulio Cesare (2012)

Posted By: ArlegZ
Alan Curtis, Il Complesso Barocco - Handel: Giulio Cesare (2012)

Alan Curtis, Il Complesso Barocco - Handel: Giulio Cesare (2012)
EAC | FLAC | Image (Cue & Log) ~ 1.22 Gb | Total time: 77:55+74:08+68:27 | Scans included
Classical | Label: Naïve | OP30536 | Recorded: 2011

This exciting studio recording is the second project resulting from the collaboration between Marie-Nicole Lemieux Karina Gauvin and conductor and harpsichordist Alan Curtis' award winning Complesso Barocco. Giulio Cesare is one of Handel's most renowned operas and the role of Giulio Cesare is considered to be one of the most beautiful roles in the baroque opera. The full vocal cast is stunning and Alan Curtis shows once again why he is considered one of the world's leading Handel specialists.

Performer:
Giulio Cesare - Marie-Nicole Lemieux
Cleopatra - Karina Gauvin
Cornelia - Romina Basso
Sesto - Emöke Baráth
Tolomeo - Filippo Mineccia
Achilla - Johannes Weisser
Nireno - Milena Sorti
Curio - Gianluca Buratto
Il Complesso Barocco
Conductor - Alan Curtis

Track List:
CD1:
01. Ouverture
02. Atto I. Scena 1 [Coro] Viva il nostro alcide
03. Scena 1 [Cesare] Aria: Presti ormai l'egizia terra
04. Scena 1 [Cesare, Curio] Recitativo: Curio, Cesare venne
05. Scena 3 [Cesare] Aria: Empio, dirò, tu sei
06. Scena 4 [Curio, Cornelia, Sesto] Recitativo: Già torna in se
07. Scena 4 [Cornelia] Aria: Priva son d’ogni conforto
08. Scena 4 [Sesto] Recitativo: Vani sono i lamenti
09. Scena 4 [Sesto] Aria: Svegliatevi nel core
10. Scena 5 [Cleopatra, Nireno, Tolomeo] Recitativo: Regni Cleopatra
11. Scena 5 [Cleopatra] Aria: Non disperar, chi sa?
12. Scena 6 [Tolomeo, Achilla] Recitativo: Sire, Signor!
13. Scena 6 [Tolomeo] Aria: L’empio, sleale, indegno
14. Scena 7 [Cesare] Recitativo accompagnato: Alma del gran Pompeo
15. Scena 7 [Cesare, Curio, Cleopatra] Recitativo: Qui nobile donzella
16. Scena 7 [Cesare] Aria: Non è sì vago e bello
17. Scena 7 [Nireno, Cleopatra] Recitativo: Cleopatra vincesti
18. Scena 7 [Cleopatra] Aria: Tutto può donna vezzosa
19. Scena 7 [Nireno, Cleopatra] Recitativo: Ferma, Cleopatra, osservi
20. Scena 8 [Cornelia] Arioso: Nel tuo seno, amico sasso
21. Scena 8 [Cornelia, Cleopatra, Sesto, Nireno] Recitativo: Ma che! vile e negletta
22. Scena 8 [Sesto] Aria: Cara speme, questo core
23. Scena 8 [Cleopatra] Recitativo: Vegli pur il germano
24. Scena 8 [Cleopatra] Aria: Tu la mia stella sei
25. Scena 9 [Tolomeo, Cesare, Achilla] Recitativo: Cesare, alla tua destra
26. Scena 9 [Cesare] Aria: Va tacito e nascosto
27. Scena 10 [Achilla, Tolomeo, Cornelia, Sesto] Recitativo: Sire, con Sesto il figlio
28. Scena 11 [Achilla] Aria: Tu sei il cor di questo core
CD2:
01. Scena 11 [Sesto, Cornelia] Recitativo: Madre!
02. Scena 11 [Sesto, Cornelia] Duetto: Son nata/o a lagrimar/sospirar
03. Atto II. Scena 1 [Cleopatra, Nireno] Recitativo: Esegiusti, o Nirene, quanto t'imposi?
04. Scena 2 Sinfonia
05. Scena 2 [Cesare] Recitativo: Cieli, e qual delle sfere
06. Scena 2 Sinfonia
07. Scena 2 [Cesare] Recitativo: Giulio, che miri? e quando
08. Scena 2 [Cesare] Aria: V'adoro, pupille
09. Scena 2 [Nireno, Cesare] Recitativo: Vola, mio cor, al dolce incanto
10. Scena 2 [Cesare] Aria: Se in fiorito ameno prato
11. Scena 3 [Cornelia] Arioso: Deh, piangete, o mesti lumi
12. Scena 3 [Achilla, Cornelia] Recitativo: Bella, non lagrimare
13. Scena 4 [Achilla] Aria: Se a me non sei crudele
14. Scena 4 [Tolomeo, Cornelia] Recitativo: Bella, cotanto aborri
15. Scena 4 [Tolomeo] Aria: Sì, spietata, il tuo rigore
16. Scena 5 [Cornelia, Sesto] Recitativo: Su, che si tarda? or che parti il lascivo
17. Scena 6 [Cornelia] Aria: Cessa omai di sospirare!
18. Scena 6 [Sesto] Recitativo: Figlio non e, chi vendicar non cura
19. Scena 6 [Sesto] Aria: L'angue offeso mai riposa
20. Scena 7 [Cleopatra] Recitativo: Esser qui deve in breve
21. Scena 7 [Cleopatra] Aria: Venere bella
22. Scena 7 [Cesare, Cleopatra] Recitativo: Che veggio, oh numi?
23. Scena 8 [Cesare] Aria: Al lampo dell'armi
24. Scena 8 [Cleopatra] Recitativo: Che sento? Oh dio!
25. Scena 8 [Cleopatra] Aria: Se pietà di me non senti
26. Scena 9 [Tolomeo] Arioso: Belle dee di questo core
27. Scena 9 [Tolomeo, Cornelia, Sesto] Recitativo: Questo e luogo
CD3:
01. Scena 11 [Sesto] Aria: L’aure che spira
02. Atto III. Scena 1 [Achilla] Recitativo: In tal' modi si premia
03. Scena 1 [Achilla] Aria: Dal fulgor di questa spada
04. Scena 2 Sinfonia
05. Scena 2 [Tolomeo, Cleopatra] Recitativo: Vinta cadesti
06. Scena 2 [Tolomeo] Aria: Domerò la tua fierezza
07. Scena 3 [Cleopatra] Recitativo: E pur così in un giorno/Aria: Piangero la sorte mia
08. Scena 4 [Cesare] Recitativo accompagnato: Dall'ondoso periglio / Aria: Aure, deh, per pietà
09. Scena 4 [Sesto, Achilla, Cesare, Nireno] Recitativo: Cerco invan Tolomeo
10. Scena 5 [Cesare] Aria: Quel torrente, che cade dal monte
11. Scena 6 [Sesto, Nireno] Recitativo: Tutto lice sperar
12. Scena 6 [Sesto] Aria: La giustizia ha già sull’arco
13. Scena 7 [Cleopatra] Recitativo accompagnato: Voi che mie fide
14. Scena 7 [Cleopatra, Cesare] Recitativo: Forzai l'ingresso
15. Scena 7 [Cleopatra] Aria: Da tempeste il legno infranto
16. Scena 8 [Tolomeo, Cornelia] Recitativo: Cornelia, è tempo omai
17. Scena 9 [Cornelia] Aria: Non ha più che temere
18. Scena ultima Sinfonia
19. Scena ultima [Nireno, Cesare, Sesto, Cornelia, Cleopatra] Recitativo: Qui Curio vincitor
20. Scena ultima [Cleopatra, Cesare] Duetto: Caro!/Bella!
21. Scena ultima [Cesare] Recitativo: Goda pur or l'Egitto
22. Scena ultima [Coro] Ritorni omai nel nostro core


Exact Audio Copy V1.3 from 2. September 2016

EAC extraction logfile from 22. May 2018, 20:23

Alan Curtis / Handel - Giulio Cesare in Egitto (Disc 1)

Used drive : ATAPI iHAS124 F Adapter: 1 ID: 0

Read mode : Secure
Utilize accurate stream : Yes
Defeat audio cache : Yes
Make use of C2 pointers : No

Read offset correction : 6
Overread into Lead-In and Lead-Out : No
Fill up missing offset samples with silence : Yes
Delete leading and trailing silent blocks : No
Null samples used in CRC calculations : Yes
Used interface : Native Win32 interface for Win NT & 2000

Used output format : User Defined Encoder
Selected bitrate : 1024 kBit/s
Quality : High
Add ID3 tag : No
Command line compressor : C:\Program Files (x86)\Exact Audio Copy\FLAC\FLAC.EXE
Additional command line options : -8 -V -T "TITLE=%title%" -T "ARTIST=%artist%" -T "ALBUMARTIST=%albumartist%" -T "ALBUM=%albumtitle%" -T "DATE=%year%" -T "TRACKNUMBER=%tracknr%" -T "TRACKTOTAL=%numtracks%" -T "GENRE=%genre%" -T "COMMENT=%comment%" -T "PERFORMER=%albuminterpret%" -T "COMPOSER=%composer%" %source% -o %dest%


TOC of the extracted CD

Track | Start | Length | Start sector | End sector
––––––––––––––––––––––––––––-
1 | 0:00.00 | 2:41.22 | 0 | 12096
2 | 2:41.22 | 1:32.36 | 12097 | 19032
3 | 4:13.58 | 2:08.47 | 19033 | 28679
4 | 6:22.30 | 3:42.65 | 28680 | 45394
5 | 10:05.20 | 3:34.41 | 45395 | 61485
6 | 13:39.61 | 1:26.73 | 61486 | 68008
7 | 15:06.59 | 5:11.59 | 68009 | 91392
8 | 20:18.43 | 0:22.18 | 91393 | 93060
9 | 20:40.61 | 4:07.50 | 93061 | 111635
10 | 24:48.36 | 2:20.45 | 111636 | 122180
11 | 27:09.06 | 4:23.43 | 122181 | 141948
12 | 31:32.49 | 1:26.19 | 141949 | 148417
13 | 32:58.68 | 3:29.09 | 148418 | 164101
14 | 36:28.02 | 2:30.74 | 164102 | 175425
15 | 38:59.01 | 1:40.13 | 175426 | 182938
16 | 40:39.14 | 3:03.49 | 182939 | 196712
17 | 43:42.63 | 0:32.31 | 196713 | 199143
18 | 44:15.19 | 4:54.43 | 199144 | 221236
19 | 49:09.62 | 0:21.64 | 221237 | 222875
20 | 49:31.51 | 2:26.33 | 222876 | 233858
21 | 51:58.09 | 2:08.65 | 233859 | 243523
22 | 54:06.74 | 4:40.18 | 243524 | 264541
23 | 58:47.17 | 0:26.47 | 264542 | 266538
24 | 59:13.64 | 4:34.22 | 266539 | 287110
25 | 63:48.11 | 1:01.29 | 287111 | 291714
26 | 64:49.40 | 6:10.14 | 291715 | 319478
27 | 70:59.54 | 2:22.03 | 319479 | 330131
28 | 73:21.57 | 4:33.28 | 330132 | 350634


Range status and errors

Selected range

Filename C:\EACRip\HANDEL\Handel - Giulio Cesare (Alan Curtis) (2012)\CD1\Handel - Giulio Cesare in Egitto (Disc 1) - Alan Curtis.wav

Peak level 96.8 %
Extraction speed 9.8 X
Range quality 100.0 %
Test CRC 1163863E
Copy CRC 1163863E
Copy OK

No errors occurred


AccurateRip summary

Track 1 accurately ripped (confidence 9) [CDEBE235] (AR v2)
Track 2 accurately ripped (confidence 9) [6446AFEF] (AR v2)
Track 3 accurately ripped (confidence 9) [1632E0D1] (AR v2)
Track 4 accurately ripped (confidence 9) [D7808076] (AR v2)
Track 5 accurately ripped (confidence 9) [0398F9B1] (AR v2)
Track 6 accurately ripped (confidence 9) [76E531F3] (AR v2)
Track 7 accurately ripped (confidence 9) [3CD53AE5] (AR v2)
Track 8 accurately ripped (confidence 9) [20B318D9] (AR v2)
Track 9 accurately ripped (confidence 9) [D5B8CCC9] (AR v2)
Track 10 accurately ripped (confidence 9) [E95C9E02] (AR v2)
Track 11 accurately ripped (confidence 9) [581C916D] (AR v2)
Track 12 accurately ripped (confidence 9) [CD4DFAA6] (AR v2)
Track 13 accurately ripped (confidence 9) [6696BDCE] (AR v2)
Track 14 accurately ripped (confidence 9) [6EBEA6D1] (AR v2)
Track 15 accurately ripped (confidence 9) [E4E8129A] (AR v2)
Track 16 accurately ripped (confidence 9) [4753E47D] (AR v2)
Track 17 accurately ripped (confidence 9) [4AE3CCF9] (AR v2)
Track 18 accurately ripped (confidence 9) [3FC6950E] (AR v2)
Track 19 accurately ripped (confidence 9) [0B7698D4] (AR v2)
Track 20 accurately ripped (confidence 9) [775C8B2D] (AR v2)
Track 21 accurately ripped (confidence 9) [FFDBB7B8] (AR v2)
Track 22 accurately ripped (confidence 9) [7A640370] (AR v2)
Track 23 accurately ripped (confidence 9) [B0859640] (AR v2)
Track 24 accurately ripped (confidence 9) [FE0808F4] (AR v2)
Track 25 accurately ripped (confidence 9) [DD2C6399] (AR v2)
Track 26 accurately ripped (confidence 9) [5CD8E8C6] (AR v2)
Track 27 accurately ripped (confidence 9) [4806ED10] (AR v2)
Track 28 accurately ripped (confidence 9) [CEB7522C] (AR v2)

All tracks accurately ripped

End of status report

–– CUETools DB Plugin V2.1.6

[CTDB TOCID: TNIgBWUwAfbEv7xAM6.3gEs3bEc-] found
Submit result: TNIgBWUwAfbEv7xAM6.3gEs3bEc- has been confirmed
Track | CTDB Status
1 | (18/18) Accurately ripped
2 | (18/18) Accurately ripped
3 | (18/18) Accurately ripped
4 | (18/18) Accurately ripped
5 | (18/18) Accurately ripped
6 | (18/18) Accurately ripped
7 | (18/18) Accurately ripped
8 | (18/18) Accurately ripped
9 | (18/18) Accurately ripped
10 | (18/18) Accurately ripped
11 | (18/18) Accurately ripped
12 | (18/18) Accurately ripped
13 | (18/18) Accurately ripped
14 | (17/18) Accurately ripped
15 | (18/18) Accurately ripped
16 | (18/18) Accurately ripped
17 | (18/18) Accurately ripped
18 | (18/18) Accurately ripped
19 | (18/18) Accurately ripped
20 | (18/18) Accurately ripped
21 | (18/18) Accurately ripped
22 | (18/18) Accurately ripped
23 | (18/18) Accurately ripped
24 | (18/18) Accurately ripped
25 | (18/18) Accurately ripped
26 | (18/18) Accurately ripped
27 | (18/18) Accurately ripped
28 | (18/18) Accurately ripped


==== Log checksum E6068CB1256EC8A164BFD91173939AF66F60E90241A22E4DF2D324764CE28769 ====


Exact Audio Copy V1.3 from 2. September 2016

EAC extraction logfile from 22. May 2018, 20:55

Alan Curtis / Handel - Giulio Cesare in Egitto (Disc 2)

Used drive : ATAPI iHAS124 F Adapter: 1 ID: 0

Read mode : Secure
Utilize accurate stream : Yes
Defeat audio cache : Yes
Make use of C2 pointers : No

Read offset correction : 6
Overread into Lead-In and Lead-Out : No
Fill up missing offset samples with silence : Yes
Delete leading and trailing silent blocks : No
Null samples used in CRC calculations : Yes
Used interface : Native Win32 interface for Win NT & 2000

Used output format : User Defined Encoder
Selected bitrate : 1024 kBit/s
Quality : High
Add ID3 tag : No
Command line compressor : C:\Program Files (x86)\Exact Audio Copy\FLAC\FLAC.EXE
Additional command line options : -8 -V -T "TITLE=%title%" -T "ARTIST=%artist%" -T "ALBUMARTIST=%albumartist%" -T "ALBUM=%albumtitle%" -T "DATE=%year%" -T "TRACKNUMBER=%tracknr%" -T "TRACKTOTAL=%numtracks%" -T "GENRE=%genre%" -T "COMMENT=%comment%" -T "PERFORMER=%albuminterpret%" -T "COMPOSER=%composer%" %source% -o %dest%


TOC of the extracted CD

Track | Start | Length | Start sector | End sector
––––––––––––––––––––––––––––-
1 | 0:00.00 | 0:32.46 | 0 | 2445
2 | 0:32.46 | 7:37.39 | 2446 | 36759
3 | 8:10.10 | 1:47.23 | 36760 | 44807
4 | 9:57.33 | 0:29.74 | 44808 | 47056
5 | 10:27.32 | 0:22.14 | 47057 | 48720
6 | 10:49.46 | 0:53.13 | 48721 | 52708
7 | 11:42.59 | 0:16.34 | 52709 | 53942
8 | 11:59.18 | 5:09.03 | 53943 | 77120
9 | 17:08.21 | 1:20.58 | 77121 | 83178
10 | 18:29.04 | 7:54.56 | 83179 | 118784
11 | 26:23.60 | 2:03.00 | 118785 | 128009
12 | 28:26.60 | 1:28.36 | 128010 | 134645
13 | 29:55.21 | 3:02.49 | 134646 | 148344
14 | 32:57.70 | 0:48.58 | 148345 | 152002
15 | 33:46.53 | 3:15.50 | 152003 | 166677
16 | 37:02.28 | 1:58.25 | 166678 | 175552
17 | 39:00.53 | 3:30.00 | 175553 | 191302
18 | 42:30.53 | 0:20.27 | 191303 | 192829
19 | 42:51.05 | 5:18.28 | 192830 | 216707
20 | 48:09.33 | 0:29.62 | 216708 | 218944
21 | 48:39.20 | 4:01.31 | 218945 | 237050
22 | 52:40.51 | 3:19.49 | 237051 | 252024
23 | 56:00.25 | 3:14.28 | 252025 | 266602
24 | 59:14.53 | 0:56.19 | 266603 | 270821
25 | 60:10.72 | 8:42.54 | 270822 | 310025
26 | 68:53.51 | 1:39.45 | 310026 | 317495
27 | 70:33.21 | 3:35.21 | 317496 | 333641


Range status and errors

Selected range

Filename C:\EACRip\HANDEL\Handel - Giulio Cesare (Alan Curtis) (2012)\CD2\Handel - Giulio Cesare in Egitto (Disc 2) - Alan Curtis.wav

Peak level 96.9 %
Extraction speed 9.4 X
Range quality 100.0 %
Test CRC C7677FA1
Copy CRC C7677FA1
Copy OK

No errors occurred


AccurateRip summary

Track 1 accurately ripped (confidence 5) [8000D322] (AR v2)
Track 2 accurately ripped (confidence 5) [57393450] (AR v2)
Track 3 accurately ripped (confidence 5) [03FBB277] (AR v2)
Track 4 accurately ripped (confidence 5) [CF0A192B] (AR v2)
Track 5 accurately ripped (confidence 5) [5CA01901] (AR v2)
Track 6 accurately ripped (confidence 5) [EC0FDB73] (AR v2)
Track 7 accurately ripped (confidence 5) [3D2C161E] (AR v2)
Track 8 accurately ripped (confidence 5) [1E26165A] (AR v2)
Track 9 accurately ripped (confidence 5) [FE032754] (AR v2)
Track 10 accurately ripped (confidence 5) [5377B706] (AR v2)
Track 11 accurately ripped (confidence 5) [3ADC66C2] (AR v2)
Track 12 accurately ripped (confidence 5) [8D5A019A] (AR v2)
Track 13 accurately ripped (confidence 5) [103AD5C9] (AR v2)
Track 14 accurately ripped (confidence 5) [E569B205] (AR v2)
Track 15 accurately ripped (confidence 5) [1FC2D078] (AR v2)
Track 16 accurately ripped (confidence 5) [45312EEB] (AR v2)
Track 17 accurately ripped (confidence 5) [E0C488E4] (AR v2)
Track 18 accurately ripped (confidence 5) [2B9DA98C] (AR v2)
Track 19 accurately ripped (confidence 5) [601BA8BF] (AR v2)
Track 20 accurately ripped (confidence 5) [E19AA4A7] (AR v2)
Track 21 accurately ripped (confidence 5) [012A48B4] (AR v2)
Track 22 accurately ripped (confidence 5) [C622801B] (AR v2)
Track 23 accurately ripped (confidence 5) [81F4D6B9] (AR v2)
Track 24 accurately ripped (confidence 5) [5234078A] (AR v2)
Track 25 accurately ripped (confidence 5) [E402513B] (AR v2)
Track 26 accurately ripped (confidence 5) [7F6D244D] (AR v2)
Track 27 accurately ripped (confidence 5) [91A8D5B3] (AR v2)

All tracks accurately ripped

End of status report

–– CUETools DB Plugin V2.1.6

[CTDB TOCID: gv0XSfE3TskE_IGWlvaRVp1k_lU-] found
Submit result: gv0XSfE3TskE_IGWlvaRVp1k_lU- has been confirmed
Track | CTDB Status
1 | (19/19) Accurately ripped
2 | (19/19) Accurately ripped
3 | (19/19) Accurately ripped
4 | (19/19) Accurately ripped
5 | (19/19) Accurately ripped
6 | (19/19) Accurately ripped
7 | (19/19) Accurately ripped
8 | (19/19) Accurately ripped
9 | (19/19) Accurately ripped
10 | (19/19) Accurately ripped
11 | (19/19) Accurately ripped
12 | (19/19) Accurately ripped
13 | (19/19) Accurately ripped
14 | (19/19) Accurately ripped
15 | (19/19) Accurately ripped
16 | (19/19) Accurately ripped
17 | (19/19) Accurately ripped
18 | (19/19) Accurately ripped
19 | (19/19) Accurately ripped
20 | (19/19) Accurately ripped
21 | (19/19) Accurately ripped
22 | (19/19) Accurately ripped
23 | (19/19) Accurately ripped
24 | (19/19) Accurately ripped
25 | (19/19) Accurately ripped
26 | (19/19) Accurately ripped
27 | (19/19) Accurately ripped


==== Log checksum C0AEC011E14776E951715E653AD7F1FF76A211E5B8C344EFAEF3A1F15BA91451 ====


Exact Audio Copy V1.3 from 2. September 2016

EAC extraction logfile from 22. May 2018, 21:25

Alan Curtis / Handel - Giulio Cesare in Egitto (Disc 3)

Used drive : ATAPI iHAS124 F Adapter: 1 ID: 0

Read mode : Secure
Utilize accurate stream : Yes
Defeat audio cache : Yes
Make use of C2 pointers : No

Read offset correction : 6
Overread into Lead-In and Lead-Out : No
Fill up missing offset samples with silence : Yes
Delete leading and trailing silent blocks : No
Null samples used in CRC calculations : Yes
Used interface : Native Win32 interface for Win NT & 2000

Used output format : User Defined Encoder
Selected bitrate : 1024 kBit/s
Quality : High
Add ID3 tag : No
Command line compressor : C:\Program Files (x86)\Exact Audio Copy\FLAC\FLAC.EXE
Additional command line options : -8 -V -T "TITLE=%title%" -T "ARTIST=%artist%" -T "ALBUMARTIST=%albumartist%" -T "ALBUM=%albumtitle%" -T "DATE=%year%" -T "TRACKNUMBER=%tracknr%" -T "TRACKTOTAL=%numtracks%" -T "GENRE=%genre%" -T "COMMENT=%comment%" -T "PERFORMER=%albuminterpret%" -T "COMPOSER=%composer%" %source% -o %dest%


TOC of the extracted CD

Track | Start | Length | Start sector | End sector
––––––––––––––––––––––––––––-
1 | 0:00.00 | 5:21.54 | 0 | 24128
2 | 5:21.54 | 0:31.06 | 24129 | 26459
3 | 5:52.60 | 2:59.29 | 26460 | 39913
4 | 8:52.14 | 0:38.55 | 39914 | 42818
5 | 9:30.69 | 0:49.29 | 42819 | 46522
6 | 10:20.23 | 4:10.46 | 46523 | 65318
7 | 14:30.69 | 6:33.24 | 65319 | 94817
8 | 21:04.18 | 8:40.00 | 94818 | 133817
9 | 29:44.18 | 3:13.01 | 133818 | 148293
10 | 32:57.19 | 4:02.06 | 148294 | 166449
11 | 36:59.25 | 0:29.30 | 166450 | 168654
12 | 37:28.55 | 4:00.09 | 168655 | 186663
13 | 41:28.64 | 1:56.41 | 186664 | 195404
14 | 43:25.30 | 1:14.38 | 195405 | 200992
15 | 44:39.68 | 6:20.51 | 200993 | 229543
16 | 51:00.44 | 1:46.23 | 229544 | 237516
17 | 52:46.67 | 2:58.40 | 237517 | 250906
18 | 55:45.32 | 2:46.67 | 250907 | 263423
19 | 58:32.24 | 2:04.23 | 263424 | 272746
20 | 60:36.47 | 4:48.30 | 272747 | 294376
21 | 65:25.02 | 0:21.51 | 294377 | 296002
22 | 65:46.53 | 2:40.71 | 296003 | 308073


Range status and errors

Selected range

Filename C:\EACRip\HANDEL\Handel - Giulio Cesare (Alan Curtis) (2012)\CD3\Handel - Giulio Cesare in Egitto (Disc 3) - Alan Curtis.wav

Peak level 98.6 %
Extraction speed 8.7 X
Range quality 100.0 %
Test CRC E1E59A25
Copy CRC E1E59A25
Copy OK

No errors occurred


AccurateRip summary

Track 1 accurately ripped (confidence 9) [30F517EB] (AR v2)
Track 2 accurately ripped (confidence 9) [238F2A5E] (AR v2)
Track 3 accurately ripped (confidence 9) [26B71AC6] (AR v2)
Track 4 accurately ripped (confidence 9) [855B8B49] (AR v2)
Track 5 accurately ripped (confidence 9) [E70D9A10] (AR v2)
Track 6 accurately ripped (confidence 9) [B5AE8DE9] (AR v2)
Track 7 accurately ripped (confidence 9) [63A5EA43] (AR v2)
Track 8 accurately ripped (confidence 9) [53D6BE10] (AR v2)
Track 9 accurately ripped (confidence 9) [B5D5ECBE] (AR v2)
Track 10 accurately ripped (confidence 9) [676D3ACA] (AR v2)
Track 11 accurately ripped (confidence 9) [CDE3CA2F] (AR v2)
Track 12 accurately ripped (confidence 9) [E3B21116] (AR v2)
Track 13 accurately ripped (confidence 9) [9CA573B1] (AR v2)
Track 14 accurately ripped (confidence 9) [0277C10D] (AR v2)
Track 15 accurately ripped (confidence 9) [22F42B16] (AR v2)
Track 16 accurately ripped (confidence 9) [30BBD087] (AR v2)
Track 17 accurately ripped (confidence 9) [490E31A9] (AR v2)
Track 18 accurately ripped (confidence 9) [5D2BE3C5] (AR v2)
Track 19 accurately ripped (confidence 9) [41DA5586] (AR v2)
Track 20 accurately ripped (confidence 9) [8A4BBA73] (AR v2)
Track 21 accurately ripped (confidence 9) [2C323477] (AR v2)
Track 22 accurately ripped (confidence 9) [4047576E] (AR v2)

All tracks accurately ripped

End of status report

–– CUETools DB Plugin V2.1.6

[CTDB TOCID: nKZi6Puxxio8oGLXtO9TnWMqZG0-] found
Submit result: nKZi6Puxxio8oGLXtO9TnWMqZG0- has been confirmed
Track | CTDB Status
1 | (18/18) Accurately ripped
2 | (18/18) Accurately ripped
3 | (18/18) Accurately ripped
4 | (18/18) Accurately ripped
5 | (18/18) Accurately ripped
6 | (18/18) Accurately ripped
7 | (18/18) Accurately ripped
8 | (17/18) Accurately ripped
9 | (18/18) Accurately ripped
10 | (18/18) Accurately ripped
11 | (18/18) Accurately ripped
12 | (18/18) Accurately ripped
13 | (18/18) Accurately ripped
14 | (18/18) Accurately ripped
15 | (18/18) Accurately ripped
16 | (18/18) Accurately ripped
17 | (18/18) Accurately ripped
18 | (18/18) Accurately ripped
19 | (18/18) Accurately ripped
20 | (18/18) Accurately ripped
21 | (18/18) Accurately ripped
22 | (18/18) Accurately ripped


==== Log checksum D01FE8B5BD05F283637A83C068282B5E698F8670B4B09466C334B79483A28AD0 ====

Alan Curtis, Il Complesso Barocco - Handel: Giulio Cesare (2012)

Thanks to the original releaser