Tags
Language
Tags

Alberto Crugnola - German Lute Music of the 18th Century [4CDs] (2012)

Posted By: ArlegZ
Alberto Crugnola - German Lute Music of the 18th Century [4CDs] (2012)

Alberto Crugnola - German Lute Music of the 18th Century [4CDs] (2012)
EAC | FLAC | Image (Cue & Log) ~ 1.26 Gb | Total time: 04:26:00 | Scans included
Classical | Label: Christophorus | # CHR77355 | Recorded: 2005-2008

Lute music in Germany is closely associated with the name Silvius Leopold Weiss who influenced generations of lutenists with his outstanding compositions and was the cornerstone of German lute music. As his oeuvre has already enjoyed a wide distribution and substantial appreciation, this anthology only touches on a few individual works as reference points and places a greater focus on Weiss’s musical environment and legacy. A particular focus is given to Bayreuth which developed into a regional cultural centre for the lute thanks to the encouragement of the Margravine Wilhelmine, the sister of Frederick the Great. She was an excellent lutenist and her encounter with Weiss at the age of nine clearly sparked off her enthusiasm for this instrument. Alongside the repertoire of the court in Bayreuth, this anthology also focuses on the circle of Saxon-Silesian composers associated with Johann Sebastian Bach in Leipzig and works originating from the last generation of German lutenists during the second half of the 18th century. These aspects are however only secondary to the prime aim of compiling a balanced sequence of music for the four CDs which will not only provide musical and historical enlightenment, but also great pleasure while listening to this exceptional lute music.

Performer:
Alberto Crugnola, Baroque lute

Track List:
CD1:
Paul Charles-Durant (c. Mitte 18. Jh.)
01-07. Sonata per il liuto solo (a-Moll)
Jakob Friedrich Kleinknecht (1722-1794)
08-10. Sonata a liuto solo (B-Dur)
Silvius Leopold Weiss (1686-1750)
11-16. Sonata (g-Moll)
Adam Falckenhagen (1697-1754)
17. Fuga (A-Dur)
CD2:
Johann Michael Kühnel (c.1670-1728)
01-06. A solo (d-Moll)
Johann Friedrich Daube (c.1733-1797)
07-13. Lute solo (A-Dur)
Rudolph Straube (1717-1780/85)
14-17. Sonata II a Liuto solo
Johann Friedrich Daube
18. Fantasia (d-Moll)
19-21. Sonata (d-Moll)
22-24. Solo per il Liutho (F-Dur)
Rudolph Straube
25-27. Sonata I a Liuto solo
Johann Friedrich Daube
28-30. Sonata Lute solo (e-Moll)
CD3:
Silvius Leopold Weiss
01. Ciaccona (g-Moll)
Ernest Gottlieb Baron (1696-1760)
02-08. Sonata a liuto solo (Es-Dur)
Adam Falckenhagen
09-13. Partita I op. I
Johann Sebastian Bach (1685-1750)
14. Fuga (g-Moll) BWV 1000
Silvius Leopold Weiss
15. Ouverture (B-Dur)
Johann Kropffgans (1708 - ?)
16-21. Partita (F-Dur)
Karl Kohaut (1726-1782)
22-24. Sonata a liuto solo (D-Dur)
CD4:
David Kellner (1670-1748)
01. Fantasia (D-Dur)
Wolff Jakob Lauffensteiner (1676-1754)
02-07. Suite (B-Dur)
David Kellner
08. Fantasia (F-Dur)
09. Fantasia (d-Moll)
Johann Michael Kühnel
10-13. Partita 4 (F-Dur)
Bernhard Joachim Hagen (1720-1787)
14-16. Sonata a liuto solo (c-Moll)
Silvius Leopold Weiss
17-21. Suite (d-Moll)
David Kellner
22. Fantasia (a-Moll)
23. Fantasia (C-Dur)
24. Fantasia (A-Dur)


Exact Audio Copy V1.5 from 20. February 2020

EAC extraction logfile from 1. December 2020, 23:47

Alberto Crugnola / German Lute Music of the 18th Century - CD1 - Bayreuth: a centre of German lute music

Used drive : ASUS SDRW-08U7M-U Adapter: 1 ID: 0

Read mode : Secure
Utilize accurate stream : Yes
Defeat audio cache : Yes
Make use of C2 pointers : No

Read offset correction : 6
Overread into Lead-In and Lead-Out : No
Fill up missing offset samples with silence : Yes
Delete leading and trailing silent blocks : No
Null samples used in CRC calculations : Yes
Used interface : Native Win32 interface for Win NT & 2000

Used output format : User Defined Encoder
Selected bitrate : 128 kBit/s
Quality : High
Add ID3 tag : No
Command line compressor : C:\Program Files (x86)\Exact Audio Copy\Flac\flac.exe
Additional command line options : -V -8 -T "Date=%year%" -T "Genre=%genre%" %source%


TOC of the extracted CD

Track | Start | Length | Start sector | End sector
––––––––––––––––––––––––––––-
1 | 0:00.00 | 3:47.46 | 0 | 17070
2 | 3:47.46 | 2:34.42 | 17071 | 28662
3 | 6:22.13 | 2:56.60 | 28663 | 41922
4 | 9:18.73 | 3:04.04 | 41923 | 55726
5 | 12:23.02 | 1:39.08 | 55727 | 63159
6 | 14:02.10 | 4:51.51 | 63160 | 85035
7 | 18:53.61 | 3:15.68 | 85036 | 99728
8 | 22:09.54 | 5:17.40 | 99729 | 123543
9 | 27:27.19 | 2:49.21 | 123544 | 136239
10 | 30:16.40 | 5:23.38 | 136240 | 160502
11 | 35:40.03 | 6:41.20 | 160503 | 190597
12 | 42:21.23 | 5:32.64 | 190598 | 215561
13 | 47:54.12 | 5:27.38 | 215562 | 240124
14 | 53:21.50 | 2:49.14 | 240125 | 252813
15 | 56:10.64 | 3:59.30 | 252814 | 270768
16 | 60:10.19 | 5:22.26 | 270769 | 294944
17 | 65:32.45 | 3:57.61 | 294945 | 312780


Range status and errors

Selected range

Filename C:\temp\German Lute Music of the 18th Century - Crugnola - 2012\CD1\German Lute Music of the 18th Century - CD1.wav

Peak level 98.8 %
Extraction speed 5.2 X
Range quality 100.0 %
Test CRC 55E0C23C
Copy CRC 55E0C23C
Copy OK

No errors occurred


AccurateRip summary

Track 1 accurately ripped (confidence 5) [8F1477ED] (AR v2)
Track 2 accurately ripped (confidence 5) [81D903DC] (AR v2)
Track 3 accurately ripped (confidence 5) [71269116] (AR v2)
Track 4 accurately ripped (confidence 5) [9D775058] (AR v2)
Track 5 accurately ripped (confidence 5) [F2B5CA9A] (AR v2)
Track 6 accurately ripped (confidence 5) [A917D6BD] (AR v2)
Track 7 accurately ripped (confidence 5) [BA3D7C84] (AR v2)
Track 8 accurately ripped (confidence 5) [5B59F3FB] (AR v2)
Track 9 accurately ripped (confidence 5) [FC74476F] (AR v2)
Track 10 accurately ripped (confidence 5) [879A17E9] (AR v2)
Track 11 accurately ripped (confidence 5) [9796E180] (AR v2)
Track 12 accurately ripped (confidence 5) [21937DE9] (AR v2)
Track 13 accurately ripped (confidence 5) [9817F4DC] (AR v2)
Track 14 accurately ripped (confidence 5) [3E67DA00] (AR v2)
Track 15 accurately ripped (confidence 5) [30CC9161] (AR v2)
Track 16 accurately ripped (confidence 5) [6DB59D93] (AR v2)
Track 17 accurately ripped (confidence 5) [AF12B4D2] (AR v2)

All tracks accurately ripped

End of status report

==== Log checksum 6FAD03C50DF26C0ACDB66DECF8ADFA271DA158AFE85019FB88D0E9091A7BF31A ====


Exact Audio Copy V1.5 from 20. February 2020

EAC extraction logfile from 2. December 2020, 0:28

Alberto Crugnola / German Lute Music of the 18th Century - CD2 - From Bach to Haydn: the last generation of lutenists

Used drive : ASUS SDRW-08U7M-U Adapter: 1 ID: 0

Read mode : Secure
Utilize accurate stream : Yes
Defeat audio cache : Yes
Make use of C2 pointers : No

Read offset correction : 6
Overread into Lead-In and Lead-Out : No
Fill up missing offset samples with silence : Yes
Delete leading and trailing silent blocks : No
Null samples used in CRC calculations : Yes
Used interface : Native Win32 interface for Win NT & 2000

Used output format : User Defined Encoder
Selected bitrate : 128 kBit/s
Quality : High
Add ID3 tag : No
Command line compressor : C:\Program Files (x86)\Exact Audio Copy\Flac\flac.exe
Additional command line options : -V -8 -T "Date=%year%" -T "Genre=%genre%" %source%


TOC of the extracted CD

Track | Start | Length | Start sector | End sector
––––––––––––––––––––––––––––-
1 | 0:00.00 | 3:52.30 | 0 | 17429
2 | 3:52.30 | 3:34.17 | 17430 | 33496
3 | 7:26.47 | 2:16.62 | 33497 | 43758
4 | 9:43.34 | 1:25.33 | 43759 | 50166
5 | 11:08.67 | 1:34.20 | 50167 | 57236
6 | 12:43.12 | 1:37.17 | 57237 | 64528
7 | 14:20.29 | 1:58.70 | 64529 | 73448
8 | 16:19.24 | 1:38.60 | 73449 | 80858
9 | 17:58.09 | 1:33.65 | 80859 | 87898
10 | 19:31.74 | 1:55.57 | 87899 | 96580
11 | 21:27.56 | 0:59.01 | 96581 | 101006
12 | 22:26.57 | 0:47.52 | 101007 | 104583
13 | 23:14.34 | 1:52.70 | 104584 | 113053
14 | 25:07.29 | 5:35.01 | 113054 | 138179
15 | 30:42.30 | 4:20.22 | 138180 | 157701
16 | 35:02.52 | 1:25.56 | 157702 | 164132
17 | 36:28.33 | 3:21.18 | 164133 | 179225
18 | 39:49.51 | 0:47.18 | 179226 | 182768
19 | 40:36.69 | 2:45.17 | 182769 | 195160
20 | 43:22.11 | 2:09.58 | 195161 | 204893
21 | 45:31.69 | 2:13.12 | 204894 | 214880
22 | 47:45.06 | 2:47.61 | 214881 | 227466
23 | 50:32.67 | 2:03.65 | 227467 | 236756
24 | 52:36.57 | 2:55.16 | 236757 | 249897
25 | 55:31.73 | 4:58.41 | 249898 | 272288
26 | 60:30.39 | 4:12.05 | 272289 | 291193
27 | 64:42.44 | 3:23.57 | 291194 | 306475
28 | 68:06.26 | 2:22.24 | 306476 | 317149
29 | 70:28.50 | 3:36.23 | 317150 | 333372
30 | 74:04.73 | 3:31.47 | 333373 | 349244


Range status and errors

Selected range

Filename C:\temp\German Lute Music of the 18th Century - Crugnola - 2012\CD2\German Lute Music of the 18th Century - CD2.wav

Peak level 99.4 %
Extraction speed 5.3 X
Range quality 99.9 %
Test CRC EEF6E965
Copy CRC EEF6E965
Copy OK

No errors occurred


AccurateRip summary

Track 1 accurately ripped (confidence 5) [1BE8CF19] (AR v2)
Track 2 accurately ripped (confidence 5) [5C22823D] (AR v2)
Track 3 accurately ripped (confidence 5) [52D7457C] (AR v2)
Track 4 accurately ripped (confidence 5) [F2CBC800] (AR v2)
Track 5 accurately ripped (confidence 5) [45CDAB72] (AR v2)
Track 6 accurately ripped (confidence 5) [3BF2142D] (AR v2)
Track 7 accurately ripped (confidence 5) [8FB50FD1] (AR v2)
Track 8 accurately ripped (confidence 5) [9E1F5BA5] (AR v2)
Track 9 accurately ripped (confidence 5) [398A79EC] (AR v2)
Track 10 accurately ripped (confidence 5) [A1F34B1C] (AR v2)
Track 11 accurately ripped (confidence 5) [F8E76F68] (AR v2)
Track 12 accurately ripped (confidence 5) [8F5D77CE] (AR v2)
Track 13 accurately ripped (confidence 5) [AA2749F7] (AR v2)
Track 14 accurately ripped (confidence 5) [66846A2F] (AR v2)
Track 15 accurately ripped (confidence 5) [6EDED596] (AR v2)
Track 16 accurately ripped (confidence 5) [07FB1BB5] (AR v2)
Track 17 accurately ripped (confidence 5) [6866E550] (AR v2)
Track 18 accurately ripped (confidence 5) [C5A4AAF0] (AR v2)
Track 19 accurately ripped (confidence 5) [B59D6CBD] (AR v2)
Track 20 accurately ripped (confidence 5) [C6BA9CAA] (AR v2)
Track 21 accurately ripped (confidence 5) [D03DF46A] (AR v2)
Track 22 accurately ripped (confidence 5) [032FC8B2] (AR v2)
Track 23 accurately ripped (confidence 5) [E3EC00D1] (AR v2)
Track 24 accurately ripped (confidence 5) [D646F3A9] (AR v2)
Track 25 accurately ripped (confidence 5) [FA49BBE5] (AR v2)
Track 26 accurately ripped (confidence 5) [0FD85E51] (AR v2)
Track 27 accurately ripped (confidence 5) [AB4DE2BE] (AR v2)
Track 28 accurately ripped (confidence 5) [A4D87013] (AR v2)
Track 29 accurately ripped (confidence 4) [29C87FB6] (AR v2)
Track 30 accurately ripped (confidence 4) [99379CCD] (AR v2)

All tracks accurately ripped

End of status report

==== Log checksum 196D190BDD2710EA12734AAE88251A61F5B36F0460854443B459DAD1A71BA19E ====


Exact Audio Copy V1.5 from 20. February 2020

EAC extraction logfile from 2. December 2020, 20:36

Alberto Crugnola / German Lute Music of the 18th Century - CD3 - Encounters in Bach's house

Used drive : ASUS SDRW-08U7M-U Adapter: 1 ID: 0

Read mode : Secure
Utilize accurate stream : Yes
Defeat audio cache : Yes
Make use of C2 pointers : No

Read offset correction : 6
Overread into Lead-In and Lead-Out : No
Fill up missing offset samples with silence : Yes
Delete leading and trailing silent blocks : No
Null samples used in CRC calculations : Yes
Used interface : Native Win32 interface for Win NT & 2000

Used output format : User Defined Encoder
Selected bitrate : 128 kBit/s
Quality : High
Add ID3 tag : No
Command line compressor : C:\Program Files (x86)\Exact Audio Copy\Flac\flac.exe
Additional command line options : -V -8 -T "Date=%year%" -T "Genre=%genre%" %source%


TOC of the extracted CD

Track | Start | Length | Start sector | End sector
––––––––––––––––––––––––––––-
1 | 0:00.00 | 4:43.18 | 0 | 21242
2 | 4:43.18 | 4:22.66 | 21243 | 40958
3 | 9:06.09 | 2:59.66 | 40959 | 54449
4 | 12:06.00 | 2:47.71 | 54450 | 67045
5 | 14:53.71 | 2:45.33 | 67046 | 79453
6 | 17:39.29 | 1:40.08 | 79454 | 86961
7 | 19:19.37 | 4:01.52 | 86962 | 105088
8 | 23:21.14 | 1:13.51 | 105089 | 110614
9 | 24:34.65 | 4:04.26 | 110615 | 128940
10 | 28:39.16 | 3:05.49 | 128941 | 142864
11 | 31:44.65 | 2:30.74 | 142865 | 154188
12 | 34:15.64 | 2:53.38 | 154189 | 167201
13 | 37:09.27 | 2:34.34 | 167202 | 178785
14 | 39:43.61 | 5:40.25 | 178786 | 204310
15 | 45:24.11 | 4:11.43 | 204311 | 223178
16 | 49:35.54 | 0:50.32 | 223179 | 226960
17 | 50:26.11 | 2:03.69 | 226961 | 236254
18 | 52:30.05 | 2:37.32 | 236255 | 248061
19 | 55:07.37 | 2:00.52 | 248062 | 257113
20 | 57:08.14 | 1:38.24 | 257114 | 264487
21 | 58:46.38 | 1:11.23 | 264488 | 269835
22 | 59:57.61 | 3:15.22 | 269836 | 284482
23 | 63:13.08 | 5:16.55 | 284483 | 308237
24 | 68:29.63 | 3:34.66 | 308238 | 324353


Range status and errors

Selected range

Filename C:\temp\German Lute Music of the 18th Century - Crugnola - 2012\CD3\German Lute Music of the 18th Century - CD3.wav

Peak level 99.1 %
Extraction speed 5.2 X
Range quality 100.0 %
Test CRC 43420D26
Copy CRC 43420D26
Copy OK

No errors occurred


AccurateRip summary

Track 1 accurately ripped (confidence 3) [EC861692] (AR v2)
Track 2 accurately ripped (confidence 3) [5F03AB12] (AR v2)
Track 3 accurately ripped (confidence 3) [25511725] (AR v2)
Track 4 accurately ripped (confidence 3) [F75B90D5] (AR v2)
Track 5 accurately ripped (confidence 3) [E4AA01AB] (AR v2)
Track 6 accurately ripped (confidence 3) [D53ABD08] (AR v2)
Track 7 accurately ripped (confidence 3) [DFC4D640] (AR v2)
Track 8 accurately ripped (confidence 3) [E0093F89] (AR v2)
Track 9 accurately ripped (confidence 3) [2F22AEC2] (AR v2)
Track 10 accurately ripped (confidence 3) [D0CFEA7D] (AR v2)
Track 11 accurately ripped (confidence 3) [3E3356D4] (AR v2)
Track 12 accurately ripped (confidence 3) [3F77A613] (AR v2)
Track 13 accurately ripped (confidence 3) [7C5A3BD4] (AR v2)
Track 14 accurately ripped (confidence 3) [2C2C3180] (AR v2)
Track 15 accurately ripped (confidence 3) [B4262874] (AR v2)
Track 16 accurately ripped (confidence 3) [FC47C1AB] (AR v2)
Track 17 accurately ripped (confidence 3) [FBCDD9FD] (AR v2)
Track 18 accurately ripped (confidence 3) [E1256740] (AR v2)
Track 19 accurately ripped (confidence 3) [C14FA7BD] (AR v2)
Track 20 accurately ripped (confidence 3) [22270162] (AR v2)
Track 21 accurately ripped (confidence 3) [99E79CDD] (AR v2)
Track 22 accurately ripped (confidence 3) [6D04B416] (AR v2)
Track 23 accurately ripped (confidence 3) [5A65F500] (AR v2)
Track 24 accurately ripped (confidence 3) [7BA5C28B] (AR v2)

All tracks accurately ripped

End of status report

==== Log checksum A7DA14F3ED8EC858B8F1BA8392E7AFFF3633F4D20CFCE714A729DECD13CCBCCF ====


Exact Audio Copy V1.5 from 20. February 2020

EAC extraction logfile from 2. December 2020, 21:12

Alberto Crugnola / German Lute Music of the 18th Century - CD4 - Influences

Used drive : ASUS SDRW-08U7M-U Adapter: 1 ID: 0

Read mode : Secure
Utilize accurate stream : Yes
Defeat audio cache : Yes
Make use of C2 pointers : No

Read offset correction : 6
Overread into Lead-In and Lead-Out : No
Fill up missing offset samples with silence : Yes
Delete leading and trailing silent blocks : No
Null samples used in CRC calculations : Yes
Used interface : Native Win32 interface for Win NT & 2000

Used output format : User Defined Encoder
Selected bitrate : 128 kBit/s
Quality : High
Add ID3 tag : No
Command line compressor : C:\Program Files (x86)\Exact Audio Copy\Flac\flac.exe
Additional command line options : -V -8 -T "Date=%year%" -T "Genre=%genre%" %source%


TOC of the extracted CD

Track | Start | Length | Start sector | End sector
––––––––––––––––––––––––––––-
1 | 0:00.00 | 3:14.25 | 0 | 14574
2 | 3:14.25 | 2:28.57 | 14575 | 25731
3 | 5:43.07 | 2:06.40 | 25732 | 35221
4 | 7:49.47 | 1:41.05 | 35222 | 42801
5 | 9:30.52 | 2:52.27 | 42802 | 55728
6 | 12:23.04 | 2:16.12 | 55729 | 65940
7 | 14:39.16 | 1:05.37 | 65941 | 70852
8 | 15:44.53 | 1:38.23 | 70853 | 78225
9 | 17:23.01 | 3:22.44 | 78226 | 93419
10 | 20:45.45 | 2:12.59 | 93420 | 103378
11 | 22:58.29 | 4:25.19 | 103379 | 123272
12 | 27:23.48 | 1:16.53 | 123273 | 129025
13 | 28:40.26 | 3:57.33 | 129026 | 146833
14 | 32:37.59 | 3:01.08 | 146834 | 160416
15 | 35:38.67 | 4:56.13 | 160417 | 182629
16 | 40:35.05 | 4:16.06 | 182630 | 201835
17 | 44:51.11 | 4:36.67 | 201836 | 222602
18 | 49:28.03 | 2:49.69 | 222603 | 235346
19 | 52:17.72 | 1:58.04 | 235347 | 244200
20 | 54:16.01 | 2:01.67 | 244201 | 253342
21 | 56:17.68 | 2:29.22 | 253343 | 264539
22 | 58:47.15 | 2:59.52 | 264540 | 278016
23 | 61:46.67 | 3:53.23 | 278017 | 295514
24 | 65:40.15 | 4:05.36 | 295515 | 313925


Range status and errors

Selected range

Filename C:\temp\German Lute Music of the 18th Century - Crugnola - 2012\CD4\German Lute Music of the 18th Century - CD4.wav

Peak level 98.1 %
Extraction speed 5.2 X
Range quality 100.0 %
Test CRC C4529583
Copy CRC C4529583
Copy OK

No errors occurred


AccurateRip summary

Track 1 accurately ripped (confidence 4) [986834F9] (AR v2)
Track 2 accurately ripped (confidence 4) [8521DC59] (AR v2)
Track 3 accurately ripped (confidence 4) [8CE801F6] (AR v2)
Track 4 accurately ripped (confidence 4) [2147F3C2] (AR v2)
Track 5 accurately ripped (confidence 4) [82663981] (AR v2)
Track 6 accurately ripped (confidence 4) [530106A7] (AR v2)
Track 7 accurately ripped (confidence 4) [DEDF1B03] (AR v2)
Track 8 accurately ripped (confidence 4) [521CE8B4] (AR v2)
Track 9 accurately ripped (confidence 4) [63966226] (AR v2)
Track 10 accurately ripped (confidence 4) [2FDE3438] (AR v2)
Track 11 accurately ripped (confidence 4) [43775383] (AR v2)
Track 12 accurately ripped (confidence 4) [3C7EA7F3] (AR v2)
Track 13 accurately ripped (confidence 4) [0D1879EB] (AR v2)
Track 14 accurately ripped (confidence 4) [CF3A9206] (AR v2)
Track 15 accurately ripped (confidence 4) [27648FC1] (AR v2)
Track 16 accurately ripped (confidence 4) [C85AAA3D] (AR v2)
Track 17 accurately ripped (confidence 4) [9FA681A7] (AR v2)
Track 18 accurately ripped (confidence 4) [33352899] (AR v2)
Track 19 accurately ripped (confidence 4) [B5F09D7C] (AR v2)
Track 20 accurately ripped (confidence 4) [9B709B34] (AR v2)
Track 21 accurately ripped (confidence 4) [F5228C13] (AR v2)
Track 22 accurately ripped (confidence 4) [687AE9AF] (AR v2)
Track 23 accurately ripped (confidence 4) [DB04B783] (AR v2)
Track 24 accurately ripped (confidence 4) [ABB7AF52] (AR v2)

All tracks accurately ripped

End of status report

==== Log checksum 15E2597D04A6858D9722E38281913B089AAC8A3AE5EB70A3480F23E650E6F9D1 ====

Alberto Crugnola - German Lute Music of the 18th Century [4CDs] (2012)

Thanks to the original releaser