Subcategories
Tags
Language
Tags

Alberto Zedda, Collegium Instrumentale Brugense, Ewa Podles, Sumi Jo - Rossini: Tancredi (1995)

Posted By: ArlegZ
Alberto Zedda, Collegium Instrumentale Brugense, Ewa Podles, Sumi Jo - Rossini: Tancredi (1995)

Alberto Zedda, Collegium Instrumentale Brugense, Ewa Podles, Sumi Jo - Rossini: Tancredi (1995)
EAC | FLAC | Image (Cue & Log) ~ 574 Mb | Total time: 75:20+72:07 | Scans included
Classical | Label: Naxos | # 8.660037-38 | Recorded: 1994

Tancredi, which was based on Tasso’s epic poem Gerusalemme Liberata and was first heard in 1813, is most widely remembered for its overture, but this excellent Naxos set makes a strong case for the piece. It completely displaces the previous versions from Sony and RCA, and the eminent Rossini scholar and conductor, Alberto Zedda, proves a far more resilient, generally brisker and lighter Rossini interpreter than his predecessors. Sumi Jo is superb as the heroine, Amenaide, in dazzlingly clear coloratura, as well as imaginative pointing of phrase, rhythm and words. The mezzo, Ewa Podles, is less characterful, yet the voice is firm and rich as well as flexible; but it is the tenor, Standord Olsen, previously heard as Belmonte on John Eliot Gardiner’s recording of Entführung, who offers some of the freshest, most stylish and sweetly tuned singing from a Rossini tenor in recent years. The recording is a little lacking in body, but that partly reflects the use of a small orchestra, and the voices come over well. An Italian libretto is provided but no translation. Instead, a helpful synopsis is geared to the different tracks on the discs; had there been a libretto, this could well have received a Rosette.
–Penguin Guide

Performed:
Tancredi - Ewa Podles
Amenaide - Sumi Jo
Argirio – Stanford Olsen
Orbazzano - Pietro Spagnoli
Isaura - Anna Maria di Micco
Roggiero - Lucretia Lendi
Capella Brugensis
Collegium Instrumentale Brugense
Conductor - Alberto Zedda

Track List:
CD1:
01. Overture
02. Atto I. Introduzione: Pace onore fede amore
03. Recitativo (Argirio): Ed ecco o prodi Cavalier
04. Coro e Cavatina (Amenaide): Più dolci e placide spirano l'aure
05. Recitativo (Argirio): È già deciso, o figlia
06. Recitativo e Cavatina (Tancredi): O patria dolce e ingrata patria
07. Recitativo (Tancredi, Roggiero): D'Amenaide ecco il soggiorno
08. Recitativo (Argirio, Amenaide): La morteAria Argirio: Della patria ogni nemico
09. Recitativo e Aria (Argirio): Pensa pensa che sei mia figlia
10. Recitativo (Amenaide): Che feci Incauta
11. Recitativo e Duetto (Amenaide, Tancredi): Oh qual scegliestii terribil ora
12. Recitativo e Duetto (Amenaide, Tancredi): Laura che intorno spiri
13. Coro: Alla gloria al trionfo agli allori
14. Recitativo (Argirio, Roggiero, Tancredi, Amenaide, Isaura): Amici, cavalieri, al tempio!
15. Recitativo instrumentale e Finale (Tutti): Da chi? perché
16. Finale primo (Tutti): Ciel che feci fier cimento
17. Atto II. Recitativo (Orbazzano, Isaura): Vedesti?
18. Recitativo (Argirio, Isaura): Oh Dio! Crudel! Qual nome…
19. Aria (Argirio): Ah! Segnar invano io tento
CD2:
01. Recitativo (Isaura, Orbazzano): Trionfa, esulta, barbaro!
02. Aria (Isaura): Tu che i miseri conforti
03. Scena (Amenaide): Di mia vita inflelice
04. Cavatina (Amenaide): No, che il morir non è
05. Recitativo (Orbazzano): Di già lora è trascorsa
06. Recitativo (Tancredi, Argirio): M'abbraccia Argirio
07. Duetto (Tancredi, Argirio): Ah! Se de'mali miei
08. Recitativo (Amenaide): Gran Dio! deh! tu proteggi
09. Aria (Amenaide): Giusto Dio che umile adoro
10. Coro e Tancredi: Plaudite, o popoli
11. Scena (Tancredi, Roggiero): Invano, o Cavalier, mi trattenete
12. Recitativo (Tancredi, Amenaide): E che vuoi?
13. Duetto (Tancredi, Amenaide): Lasciami: non t'ascolto
14. Recitativo (Roggiero): S'avverassero pure i detti suoi!
15. Aria (Roggiero): Torni alfin ridente e bella
16. Gran Scena (Tancredi): Dove son io?
17. Coro di Saraceni: Regna il terror nella città
18. Recitativo (Amenaide, Tancredi): Ecco, amici, Tancredi!
19. Rondo (Tancredi e Coro): Perchè turbar la calma…
20. Recitativo (Amenaide, Isaura): Quanti tormenti in un sol giorno
21. Finale (Amenaide, Argirio, Tancredi, Tutti): Fra quai soavi palpiti


Exact Audio Copy V1.6 from 23. October 2020

EAC extraction logfile from 17. June 2021, 21:18

Alberto Zedda, Collegium Instrumentale Brugense / Rossini - Tancredi CD1

Used drive : PIONEER DVD-RW DVR-218L Adapter: 1 ID: 0

Read mode : Secure
Utilize accurate stream : Yes
Defeat audio cache : Yes
Make use of C2 pointers : No

Read offset correction : 6
Overread into Lead-In and Lead-Out : No
Fill up missing offset samples with silence : Yes
Delete leading and trailing silent blocks : No
Null samples used in CRC calculations : Yes
Used interface : Native Win32 interface for Win NT & 2000

Used output format : User Defined Encoder
Selected bitrate : 128 kBit/s
Quality : High
Add ID3 tag : No
Command line compressor : C:\Program Files\Exact Audio Copy\Flac\flac.exe
Additional command line options : -V -8 -T "Date=%year%" -T "Genre=%genre%" %source%


TOC of the extracted CD

Track | Start | Length | Start sector | End sector
––––––––––––––––––––––––––––-
1 | 0:00.00 | 5:55.35 | 0 | 26659
2 | 5:55.35 | 6:57.65 | 26660 | 57999
3 | 12:53.25 | 2:20.40 | 58000 | 68539
4 | 15:13.65 | 5:54.72 | 68540 | 95161
5 | 21:08.62 | 2:10.63 | 95162 | 104974
6 | 23:19.50 | 8:15.12 | 104975 | 142111
7 | 31:34.62 | 1:47.43 | 142112 | 150179
8 | 33:22.30 | 0:51.47 | 150180 | 154051
9 | 34:14.02 | 3:26.68 | 154052 | 169569
10 | 37:40.70 | 0:37.72 | 169570 | 172416
11 | 38:18.67 | 1:19.05 | 172417 | 178346
12 | 39:37.72 | 7:10.08 | 178347 | 210604
13 | 46:48.05 | 2:42.42 | 210605 | 222796
14 | 49:30.47 | 2:30.40 | 222797 | 234086
15 | 52:01.12 | 1:22.73 | 234087 | 240309
16 | 53:24.10 | 11:09.15 | 240310 | 290499
17 | 64:33.25 | 1:16.20 | 290500 | 296219
18 | 65:49.45 | 1:34.07 | 296220 | 303276
19 | 67:23.52 | 7:56.60 | 303277 | 339036


Range status and errors

Selected range

Filename C:\ArlegZ\Rossini - Tancredi - Alberto Zedda CD1.wav

Peak level 100.0 %
Extraction speed 2.1 X
Range quality 99.9 %
Test CRC 96DFFF2E
Copy CRC 96DFFF2E
Copy OK

No errors occurred


AccurateRip summary

Track 1 accurately ripped (confidence 22) [AE96FEAD] (AR v2)
Track 2 accurately ripped (confidence 22) [8E381701] (AR v2)
Track 3 accurately ripped (confidence 22) [79EA2CD0] (AR v2)
Track 4 accurately ripped (confidence 23) [36075F78] (AR v2)
Track 5 accurately ripped (confidence 23) [0ECCF5B3] (AR v2)
Track 6 accurately ripped (confidence 23) [24288D9C] (AR v2)
Track 7 accurately ripped (confidence 23) [771EB999] (AR v2)
Track 8 accurately ripped (confidence 23) [A48605B0] (AR v2)
Track 9 accurately ripped (confidence 23) [1244150A] (AR v2)
Track 10 accurately ripped (confidence 23) [0A423B70] (AR v2)
Track 11 accurately ripped (confidence 23) [CF005EF8] (AR v2)
Track 12 accurately ripped (confidence 23) [C6EBECAB] (AR v2)
Track 13 accurately ripped (confidence 23) [B349AAFC] (AR v2)
Track 14 accurately ripped (confidence 23) [C305E82C] (AR v2)
Track 15 accurately ripped (confidence 23) [84D9D411] (AR v2)
Track 16 accurately ripped (confidence 23) [3A033EF1] (AR v2)
Track 17 accurately ripped (confidence 23) [3273EAA9] (AR v2)
Track 18 accurately ripped (confidence 23) [EB0626DA] (AR v2)
Track 19 accurately ripped (confidence 22) [E23542C9] (AR v2)

All tracks accurately ripped

End of status report

–– CUETools DB Plugin V2.1.6

[CTDB TOCID: gkz92Lk.NdySJJbAXUCefQecLPY-] found
Submit result: gkz92Lk.NdySJJbAXUCefQecLPY- has been confirmed
Track | CTDB Status
1 | (84/84) Accurately ripped
2 | (82/84) Accurately ripped
3 | (84/84) Accurately ripped
4 | (84/84) Accurately ripped
5 | (84/84) Accurately ripped
6 | (83/84) Accurately ripped
7 | (84/84) Accurately ripped
8 | (84/84) Accurately ripped
9 | (84/84) Accurately ripped
10 | (84/84) Accurately ripped
11 | (84/84) Accurately ripped
12 | (83/84) Accurately ripped
13 | (84/84) Accurately ripped
14 | (84/84) Accurately ripped
15 | (84/84) Accurately ripped
16 | (84/84) Accurately ripped
17 | (84/84) Accurately ripped
18 | (84/84) Accurately ripped
19 | (84/84) Accurately ripped


==== Log checksum 50AF4A6C7A1390C03040A5900D9CB8066740C381D2237D14EE79D5CB0F48D432 ====


Exact Audio Copy V1.6 from 23. October 2020

EAC extraction logfile from 17. June 2021, 22:36

Alberto Zedda, Collegium Instrumentale Brugense / Rossini - Tancredi CD2

Used drive : PIONEER DVD-RW DVR-218L Adapter: 1 ID: 0

Read mode : Secure
Utilize accurate stream : Yes
Defeat audio cache : Yes
Make use of C2 pointers : No

Read offset correction : 6
Overread into Lead-In and Lead-Out : No
Fill up missing offset samples with silence : Yes
Delete leading and trailing silent blocks : No
Null samples used in CRC calculations : Yes
Used interface : Native Win32 interface for Win NT & 2000

Used output format : User Defined Encoder
Selected bitrate : 128 kBit/s
Quality : High
Add ID3 tag : No
Command line compressor : C:\Program Files\Exact Audio Copy\Flac\flac.exe
Additional command line options : -V -8 -T "Date=%year%" -T "Genre=%genre%" %source%


TOC of the extracted CD

Track | Start | Length | Start sector | End sector
––––––––––––––––––––––––––––-
1 | 0:00.00 | 1:09.35 | 0 | 5209
2 | 1:09.35 | 4:14.10 | 5210 | 24269
3 | 5:23.45 | 5:16.02 | 24270 | 47971
4 | 10:39.47 | 4:53.43 | 47972 | 69989
5 | 15:33.15 | 2:08.70 | 69990 | 79659
6 | 17:42.10 | 0:40.35 | 79660 | 82694
7 | 18:22.45 | 6:57.62 | 82695 | 114031
8 | 25:20.32 | 1:08.18 | 114032 | 119149
9 | 26:28.50 | 6:51.70 | 119150 | 150044
10 | 33:20.45 | 2:54.17 | 150045 | 163111
11 | 36:14.62 | 0:42.28 | 163112 | 166289
12 | 36:57.15 | 1:02.40 | 166290 | 170979
13 | 37:59.55 | 8:04.07 | 170980 | 207286
14 | 46:03.62 | 0:33.60 | 207287 | 209821
15 | 46:37.47 | 2:52.43 | 209822 | 222764
16 | 49:30.15 | 6:31.55 | 222765 | 252144
17 | 56:01.70 | 3:16.72 | 252145 | 266916
18 | 59:18.67 | 1:14.30 | 266917 | 272496
19 | 60:33.22 | 6:50.10 | 272497 | 303256
20 | 67:23.32 | 1:56.10 | 303257 | 311966
21 | 69:19.42 | 2:48.23 | 311967 | 324589


Range status and errors

Selected range

Filename C:\ArlegZ\Rossini - Tancredi - Alberto Zedda CD2.wav

Peak level 100.0 %
Extraction speed 2.1 X
Range quality 100.0 %
Test CRC D0A313E2
Copy CRC D0A313E2
Copy OK

No errors occurred


AccurateRip summary

Track 1 accurately ripped (confidence 21) [D37AFFDF] (AR v2)
Track 2 accurately ripped (confidence 21) [4183D3DC] (AR v2)
Track 3 accurately ripped (confidence 22) [BA81B597] (AR v2)
Track 4 accurately ripped (confidence 22) [AA2F7053] (AR v2)
Track 5 accurately ripped (confidence 22) [AAC4384D] (AR v2)
Track 6 accurately ripped (confidence 22) [84AB48C4] (AR v2)
Track 7 accurately ripped (confidence 22) [538B9889] (AR v2)
Track 8 accurately ripped (confidence 22) [45FC7829] (AR v2)
Track 9 accurately ripped (confidence 22) [C7FD1F43] (AR v2)
Track 10 accurately ripped (confidence 22) [88EBE737] (AR v2)
Track 11 accurately ripped (confidence 22) [1C7E0262] (AR v2)
Track 12 accurately ripped (confidence 22) [85411F9B] (AR v2)
Track 13 accurately ripped (confidence 22) [355D6EE6] (AR v2)
Track 14 accurately ripped (confidence 22) [2B017FF7] (AR v2)
Track 15 accurately ripped (confidence 22) [9B753BBB] (AR v2)
Track 16 accurately ripped (confidence 22) [E6A5D183] (AR v2)
Track 17 accurately ripped (confidence 22) [F7BECA9B] (AR v2)
Track 18 accurately ripped (confidence 22) [57783844] (AR v2)
Track 19 accurately ripped (confidence 22) [04C70C4F] (AR v2)
Track 20 accurately ripped (confidence 22) [2B108AC7] (AR v2)
Track 21 accurately ripped (confidence 22) [7A1EBB55] (AR v2)

All tracks accurately ripped

End of status report

–– CUETools DB Plugin V2.1.6

[CTDB TOCID: 1TxhRWpqhhWwLMvv10H.MRJ4PRE-] found
Submit result: 1TxhRWpqhhWwLMvv10H.MRJ4PRE- has been confirmed
Track | CTDB Status
1 | (92/92) Accurately ripped
2 | (92/92) Accurately ripped
3 | (92/92) Accurately ripped
4 | (92/92) Accurately ripped
5 | (92/92) Accurately ripped
6 | (92/92) Accurately ripped
7 | (92/92) Accurately ripped
8 | (92/92) Accurately ripped
9 | (92/92) Accurately ripped
10 | (92/92) Accurately ripped
11 | (92/92) Accurately ripped
12 | (92/92) Accurately ripped
13 | (92/92) Accurately ripped
14 | (92/92) Accurately ripped
15 | (92/92) Accurately ripped
16 | (92/92) Accurately ripped
17 | (92/92) Accurately ripped
18 | (92/92) Accurately ripped
19 | (92/92) Accurately ripped
20 | (92/92) Accurately ripped
21 | (75/92) Accurately ripped, or (17/92) differs in 383 samples @02:48:07-02:48:11


==== Log checksum D2B0012A8F1EBE4E6FBDCB0D176CB8A7FD8A2BD8A965FAA678CDDEE9A455A6F0 ====

Alberto Zedda, Collegium Instrumentale Brugense, Ewa Podles, Sumi Jo - Rossini: Tancredi (1995)