Subcategories
Tags
Language
Tags

Alboran Trio - Near Gale (2008)

Posted By: gribovar
Alboran Trio - Near Gale (2008)

Alboran Trio - Near Gale (2008)
EAC Rip | FLAC (tracks+.cue+log) - 349 MB | MP3 CBR 320 kbps (LAME 3.93) - 146 MB | Covers - 114 MB
Genre: Contemporary Jazz | RAR 3% Rec. | Label: ACT Music (9469-2)

The classic acoustic jazz piano trio has experienced an amazing renaissance over the last few years, and the Alboran Trio is a perfect example of this renaissance. It is the ideal admixture of a disciplined, well-defined group sound and individual musicians playing with a maximum of freedom. The trio masterfully combines traditional jazz forms with elements of world music, playing with an ease and surety in which the most basic ideas dance hand in hand with the most complex. On their ACT debut CD, Meltemi, pianist and composer Paolo Paliaga, bassist Dino Contenti, and drummer Gigi Biolcati exhibit a timeless, stylistically open-ended jazz. In this respect, with Near Gale nothing has changed. Sailing is Paolo Paliaga’s second great passion - Meltemi are the strong, dry summer winds of the Aegean Sea, and Near Gale is also borrowed from the sailor’s lingo. It indicates the range on the Beaufort wind force scale shortly before a storm. A fresh Mediterranean breeze, blowing warm and strong - the ideal metaphor for the Alboran Trio’s music.
There are many treasures to be found in the group’s Mediterranean-permeated sound universe: lyricism, pauses rich with tension, harsh, biting breaks, and pulsating, dynamic loops replete with epic dramatics - something Esbjörn Svensson first introduced to a wider jazz public. But there are also quiet, stoic miniatures, swirling group interaction, and introspective solos. All this experimenting with dynamics, rhythms, and tonal colouring is at the beck and call of the themes and melodies.
There is a sensitive impressionism in this music that touches the emotions as it penetrates deeply into the listener’s psyche. Near Gale is a Mediterranean Sea journey of three musical explorers from head to heart.
Tracklist:
01. Selon Moi
02. Autumn Mist
03. Delle Cose Nascoste
04. Also Sprach Raul
05. Rrock In The Dark
06. Fuori Stagione
07. Invariable Geometries
08. Olvido
09. Pow Wow
10. Selon Moi 3/4
11. Seguendo Il Filo

Total time: 01:02:05

Exact Audio Copy V1.0 beta 2 from 29. April 2011

EAC extraction logfile from 30. August 2011, 3:59

Alboran Trio / Near Gale

Used drive : Optiarc DVD RW AD-7260S Adapter: 3 ID: 0

Read mode : Secure
Utilize accurate stream : Yes
Defeat audio cache : Yes
Make use of C2 pointers : No

Read offset correction : 48
Overread into Lead-In and Lead-Out : No
Fill up missing offset samples with silence : Yes
Delete leading and trailing silent blocks : No
Null samples used in CRC calculations : Yes
Used interface : Native Win32 interface for Win NT & 2000
Gap handling : Appended to previous track

Used output format : User Defined Encoder
Selected bitrate : 32 kBit/s
Quality : High
Add ID3 tag : No
Command line compressor : C:\Program Files (x86)\Exact Audio Copy\Flac\flac.exe
Additional command line options : -8 -V -T "ARTIST=%artist%" -T "TITLE=%title%" -T "ALBUM=%albumtitle%" -T "DATE=%year%" -T "TRACKNUMBER=%tracknr%" -T "GENRE=%genre%" -T "PERFORMER=%albuminterpret%" -T "COMPOSER=%composer%" %haslyrics%–tag-from-file=LYRICS


TOC of the extracted CD

Track | Start | Length | Start sector | End sector
––––––––––––––––––––––––––––-
1 | 0:00.00 | 7:36.71 | 0 | 34270
2 | 7:36.71 | 5:27.68 | 34271 | 58863
3 | 13:04.64 | 4:09.23 | 58864 | 77561
4 | 17:14.12 | 4:09.36 | 77562 | 96272
5 | 21:23.48 | 4:26.58 | 96273 | 116280
6 | 25:50.31 | 6:10.59 | 116281 | 144089
7 | 32:01.15 | 6:41.02 | 144090 | 174166
8 | 38:42.17 | 5:27.60 | 174167 | 198751
9 | 44:10.02 | 6:49.46 | 198752 | 229472
10 | 50:59.48 | 6:45.03 | 229473 | 259850
11 | 57:44.51 | 4:20.04 | 259851 | 279354


Track 1

Filename E:\музыка\jazz\eac\Alboran Trio - Near Gale [2008] {ACT}\01 - Selon Moi.wav

Pre-gap length 0:00:02.00

Peak level 96.6 %
Extraction speed 2.7 X
Track quality 100.0 %
Test CRC 53983C6D
Copy CRC 53983C6D
Accurately ripped (confidence 13) [ED0730CC] (AR v1)
Copy OK

Track 2

Filename E:\музыка\jazz\eac\Alboran Trio - Near Gale [2008] {ACT}\02 - Autumn Mist.wav

Pre-gap length 0:00:02.00

Peak level 96.6 %
Extraction speed 3.0 X
Track quality 100.0 %
Test CRC 0EFE4CBD
Copy CRC 0EFE4CBD
Accurately ripped (confidence 14) [063D7446] (AR v1)
Copy OK

Track 3

Filename E:\музыка\jazz\eac\Alboran Trio - Near Gale [2008] {ACT}\03 - Delle Cose Nascoste.wav

Pre-gap length 0:00:02.00

Peak level 96.6 %
Extraction speed 2.8 X
Track quality 99.9 %
Test CRC DFC7FE9E
Copy CRC DFC7FE9E
Accurately ripped (confidence 14) [FF82FC0F] (AR v1)
Copy OK

Track 4

Filename E:\музыка\jazz\eac\Alboran Trio - Near Gale [2008] {ACT}\04 - Also Sprach Raul.wav

Pre-gap length 0:00:02.00

Peak level 96.6 %
Extraction speed 3.4 X
Track quality 100.0 %
Test CRC B3546A93
Copy CRC B3546A93
Accurately ripped (confidence 14) [A3AE3277] (AR v1)
Copy OK

Track 5

Filename E:\музыка\jazz\eac\Alboran Trio - Near Gale [2008] {ACT}\05 - Rock In The Dark.wav

Pre-gap length 0:00:02.00

Peak level 96.6 %
Extraction speed 3.6 X
Track quality 100.0 %
Test CRC 273EFBFD
Copy CRC 273EFBFD
Accurately ripped (confidence 14) [F300D0D0] (AR v1)
Copy OK

Track 6

Filename E:\музыка\jazz\eac\Alboran Trio - Near Gale [2008] {ACT}\06 - Fuori Satgione.wav

Pre-gap length 0:00:02.00

Peak level 96.6 %
Extraction speed 4.0 X
Track quality 100.0 %
Test CRC 731038D6
Copy CRC 731038D6
Accurately ripped (confidence 13) [C2921A35] (AR v1)
Copy OK

Track 7

Filename E:\музыка\jazz\eac\Alboran Trio - Near Gale [2008] {ACT}\07 - Invariable Geometries.wav

Pre-gap length 0:00:02.00

Peak level 96.6 %
Extraction speed 4.0 X
Track quality 99.9 %
Test CRC 520EA1D8
Copy CRC 520EA1D8
Accurately ripped (confidence 14) [59DD6FEA] (AR v1)
Copy OK

Track 8

Filename E:\музыка\jazz\eac\Alboran Trio - Near Gale [2008] {ACT}\08 - Olvido.wav

Pre-gap length 0:00:02.00

Peak level 96.6 %
Extraction speed 4.5 X
Track quality 100.0 %
Test CRC D97F5E09
Copy CRC D97F5E09
Accurately ripped (confidence 13) [0A487D93] (AR v1)
Copy OK

Track 9

Filename E:\музыка\jazz\eac\Alboran Trio - Near Gale [2008] {ACT}\09 - Pow Wow.wav

Pre-gap length 0:00:02.00

Peak level 96.6 %
Extraction speed 4.8 X
Track quality 100.0 %
Test CRC 53418446
Copy CRC 53418446
Accurately ripped (confidence 13) [4BA5749C] (AR v1)
Copy OK

Track 10

Filename E:\музыка\jazz\eac\Alboran Trio - Near Gale [2008] {ACT}\10 - Selon Moi 3-4.wav

Pre-gap length 0:00:02.00

Peak level 96.6 %
Extraction speed 4.7 X
Track quality 99.9 %
Test CRC 2B6786BB
Copy CRC 2B6786BB
Accurately ripped (confidence 13) [932451F0] (AR v1)
Copy OK

Track 11

Filename E:\музыка\jazz\eac\Alboran Trio - Near Gale [2008] {ACT}\11 - Seguendo Il Filo.wav

Pre-gap length 0:00:02.00

Peak level 96.6 %
Extraction speed 5.0 X
Track quality 100.0 %
Test CRC 540CA7C0
Copy CRC 540CA7C0
Accurately ripped (confidence 14) [43E57D6C] (AR v1)
Copy OK


All tracks accurately ripped

No errors occurred

End of status report

==== Log checksum 05B59CA26826AD11407052922F1442E0AB4AE8B7DED8D1E545B67BA5ED653C6E ====

[CUETools log; Date: 04.05.2021 19:38:55; Version: 2.1.4]
[CTDB TOCID: USliwvkyNFHfNT1VjFSOP6UuXFs-] found.
Track | CTDB Status
1 | (32/32) Accurately ripped
2 | (32/32) Accurately ripped
3 | (32/32) Accurately ripped
4 | (32/32) Accurately ripped
5 | (32/32) Accurately ripped
6 | (32/32) Accurately ripped
7 | (32/32) Accurately ripped
8 | (32/32) Accurately ripped
9 | (32/32) Accurately ripped
10 | (32/32) Accurately ripped
11 | (32/32) Accurately ripped
[AccurateRip ID: 0019774b-00dc3137-950e8c0b] found.
Track [ CRC | V2 ] Status
01 [ed0730cc|ddc21cff] (14+27/41) Accurately ripped
02 [063d7446|b34b4528] (16+28/44) Accurately ripped
03 [ff82fc0f|ccffd3b2] (16+28/44) Accurately ripped
04 [a3ae3277|e942d58f] (16+28/44) Accurately ripped
05 [f300d0d0|feba6a79] (16+28/44) Accurately ripped
06 [c2921a35|fa2c7331] (14+28/42) Accurately ripped
07 [59dd6fea|5c856d58] (15+26/41) Accurately ripped
08 [0a487d93|61657939] (14+28/42) Accurately ripped
09 [4ba5749c|d059d21d] (14+28/42) Accurately ripped
10 [932451f0|ff819050] (14+27/41) Accurately ripped
11 [43e57d6c|02d044c6] (15+28/43) Accurately ripped

Track Peak [ CRC32 ] [W/O NULL] [ LOG ]
– 96,6 [68AF14A6] [87A361A7]
01 96,6 [53983C6D] [9558328F] CRC32
02 96,6 [0EFE4CBD] [A2EC3FCB] CRC32
03 96,6 [DFC7FE9E] [E193201F] CRC32
04 96,6 [B3546A93] [71E5075C] CRC32
05 96,6 [273EFBFD] [A60EBAC1] CRC32
06 96,6 [731038D6] [1F682FC4] CRC32
07 96,6 [520EA1D8] [C80651E2] CRC32
08 96,6 [D97F5E09] [FD2EE4EC] CRC32
09 96,6 [53418446] [5EF79C72] CRC32
10 96,6 [2B6786BB] [58F18162] CRC32
11 96,6 [540CA7C0] [5F7CCF7D] CRC32

Thanks to deepofrain