Tags
Language
Tags

Alessandro Amoretti, Nicolaus Esterházy Sinfonia - Domenico Cimarosa: Overtures Vol.1 (2007)

Posted By: ArlegZ
Alessandro Amoretti, Nicolaus Esterházy Sinfonia - Domenico Cimarosa: Overtures Vol.1 (2007)

Alessandro Amoretti, Nicolaus Esterházy Sinfonia - Domenico Cimarosa: Overtures Vol.1 (2007)
EAC | FLAC | Image (Cue & Log) ~ 338 Mb | Total time: 69:06 | Scans included
Classical | Label: Naxos | # 8.570508 | Recorded: 2000

Domenico Cimarosa was the most famous and popular Italian composer of the second half of the eighteenth century. In the course of a brilliantly successful career he composed more than 65 operas, as well as a significant body of instrumental music and works for the church. His operas were performed all over Europe, both in Italian and in translation. A number of Cimarosa’s operas continued to enjoy occasional stagings during the nineteenth century, and his most famous work, Il matrimonio segreto, is one of only a handful of operas of the period never to have left the repertory. Cimarosa’s overtures are remarkable for their melodic invention, assured handling of the orchestra and sheer vitality.

Performer:
Nicolaus Esterházy Sinfonia
Alessandro Amoretti, conductor

Track List:
Domenico Cimarosa (1749-1801)
01. Voldomiro
02. La baronessa Stramba
03. Le stravaganze del conte
04. Il matrimonio segreto
05. L’infedeltà fedele
06. Il ritorno di Don Calendrino
07. Il falegname
08. Cleopatra
09. Il convito
10. La vergine del sole
11. Il credulo
12. L’impresario in angustie


Exact Audio Copy V1.6 from 23. October 2020

EAC extraction logfile from 21. October 2021, 11:20

Domenico Cimarosa / Overtures

Used drive : PIONEER BD-RW BDR-209D Adapter: 1 ID: 0

Read mode : Secure
Utilize accurate stream : Yes
Defeat audio cache : Yes
Make use of C2 pointers : No

Read offset correction : 667
Overread into Lead-In and Lead-Out : No
Fill up missing offset samples with silence : Yes
Delete leading and trailing silent blocks : No
Null samples used in CRC calculations : Yes
Used interface : Native Win32 interface for Win NT & 2000

Used output format : User Defined Encoder
Selected bitrate : 1024 kBit/s
Quality : High
Add ID3 tag : No
Command line compressor : C:\Program Files (x86)\Exact Audio Copy\FLAC\FLAC.EXE
Additional command line options : -6 -V -T "ARTIST=%artist%" -T "TITLE=%title%" -T "ALBUM=%albumtitle%" -T "DATE=%year%" -T "TRACKNUMBER=%tracknr%" -T "GENRE=%genre%" -T "COMMENT=%comment%" -T "BAND=%albuminterpret%" -T "ALBUMARTIST=%albuminterpret%" -T "COMPOSER=%composer%" %haslyrics%–tag-from-file=LYRICS="%lyricsfile%"%haslyrics% -T "DISCNUMBER=%cdnumber%" -T "TOTALDISCS=%totalcds%" -T "TOTALTRACKS=%numtracks%" %hascover%–picture="%coverfile%"%hascover% %source% -o %dest%


TOC of the extracted CD

Track | Start | Length | Start sector | End sector
––––––––––––––––––––––––––––-
1 | 0:00.00 | 4:09.27 | 0 | 18701
2 | 4:09.27 | 6:19.53 | 18702 | 47179
3 | 10:29.05 | 3:30.05 | 47180 | 62934
4 | 13:59.10 | 6:02.42 | 62935 | 90126
5 | 20:01.52 | 5:28.45 | 90127 | 114771
6 | 25:30.22 | 9:13.30 | 114772 | 156276
7 | 34:43.52 | 5:24.40 | 156277 | 180616
8 | 40:08.17 | 4:24.30 | 180617 | 200446
9 | 44:32.47 | 9:14.40 | 200447 | 242036
10 | 53:47.12 | 5:36.45 | 242037 | 267281
11 | 59:23.57 | 4:57.15 | 267282 | 289571
12 | 64:20.72 | 5:18.03 | 289572 | 313424


Range status and errors

Selected range

Filename V:\Videos\LittleGrecy.Domenico.Cimarosa.Overtures\Domenico Cimarosa - Overtures.wav

Peak level 99.9 %
Extraction speed 7.9 X
Range quality 100.0 %
Test CRC ED9684E6
Copy CRC ED9684E6
Copy OK

No errors occurred


AccurateRip summary

Track 1 accurately ripped (confidence 2) [978F5F62] (AR v1)
Track 2 accurately ripped (confidence 2) [FD27A3CA] (AR v1)
Track 3 accurately ripped (confidence 2) [05259825] (AR v1)
Track 4 accurately ripped (confidence 2) [A3A611B7] (AR v1)
Track 5 accurately ripped (confidence 2) [EB368F2B] (AR v1)
Track 6 accurately ripped (confidence 2) [193DE3A4] (AR v1)
Track 7 accurately ripped (confidence 2) [D0A5FD19] (AR v1)
Track 8 accurately ripped (confidence 2) [26D67A1D] (AR v1)
Track 9 accurately ripped (confidence 2) [0CF1E491] (AR v1)
Track 10 accurately ripped (confidence 2) [514F768D] (AR v1)
Track 11 accurately ripped (confidence 2) [7C1448BF] (AR v1)
Track 12 accurately ripped (confidence 2) [AEF902D4] (AR v1)

All tracks accurately ripped

End of status report

–– CUETools DB Plugin V2.1.6

[CTDB TOCID: HaJL.xs3idxww6ZeYxXDNfnFYxE-] found
Submit result: HaJL.xs3idxww6ZeYxXDNfnFYxE- has been confirmed
Track | CTDB Status
1 | (23/23) Accurately ripped
2 | (23/23) Accurately ripped
3 | (23/23) Accurately ripped
4 | (23/23) Accurately ripped
5 | (23/23) Accurately ripped
6 | (23/23) Accurately ripped
7 | (23/23) Accurately ripped
8 | (23/23) Accurately ripped
9 | (23/23) Accurately ripped
10 | (23/23) Accurately ripped
11 | (22/23) Accurately ripped
12 | (23/23) Accurately ripped

Alessandro Amoretti, Nicolaus Esterházy Sinfonia - Domenico Cimarosa: Overtures Vol.1 (2007)

Thanks to the original releaser