Subcategories

Alex G - Rocket (2017)

Posted By: SERTiL
Alex G - Rocket (2017)

Alex G - Rocket
XLD Rip | FLAC (tracks)+cue, log, front cover | 41:46 min | 266 MB
Label: Domino - WIG 398 | Tracks: 14 | Rls.date: 2017
Indie Rock, Lo-Fi

Rocket is Alex G’s 8th full-length—an assured statement that follows a slate of humble masterpieces, stretching to his 2015 Domino debut, Beach Music. Amid recording, Alex made headlines for catching the attention of Frank Ocean; playing guitar on his two 2016 albums, Endless and Blonde. More than stylistic cues, what Alex took from the experience was a confidence in collaboration. Rocket wears this collaborative spirit proudly, and in its numerous contributors presents a restless sense of musical experimentation, effortlessly jumping from sound collage to dreamy folk to bouncing Americana.

TRACKLIST
1. Poison Root
2. Proud
3. Country
4. Bobby
5. Witch
6. Horse
7. Brick
8. Sportstar
9. Judge
10. Rocket
11. Powerful Man
12. Alina
13. Big Fish
14. Guilty

X Lossless Decoder version 20151214 (149.1)

XLD extraction logfile from 2017-06-08 08:10:30 -0400

(Sandy) Alex G / Rocket

Used drive : MATSHITA DVD-R UJ-8A8 (revision HA13)
Media type : Pressed CD

Ripper mode : XLD Secure Ripper
Disable audio cache : OK for the drive with a cache less than 1375KiB
Make use of C2 pointers : NO
Read offset correction : 102
Max retry count : 100
Gap status : Analyzed, Appended (except HTOA)

TOC of the extracted CD
Track | Start | Length | Start sector | End sector
––––––––––––––––––––––––––––-
1 | 00:00:00 | 02:24:45 | 0 | 10844
2 | 02:24:45 | 04:57:02 | 10845 | 33121
3 | 07:21:47 | 03:01:65 | 33122 | 46761
4 | 10:23:37 | 03:42:61 | 46762 | 63472
5 | 14:06:23 | 02:40:13 | 63473 | 75485
6 | 16:46:36 | 02:04:08 | 75486 | 84793
7 | 18:50:44 | 02:12:19 | 84794 | 94712
8 | 21:02:63 | 03:51:06 | 94713 | 112043
9 | 24:53:69 | 02:30:05 | 112044 | 123298
10 | 27:23:74 | 01:59:07 | 123299 | 132230
11 | 29:23:06 | 03:39:05 | 132231 | 148660
12 | 33:02:11 | 03:02:47 | 148661 | 162357
13 | 36:04:58 | 02:12:23 | 162358 | 172280
14 | 38:17:06 | 03:33:46 | 172281 | 188301

AccurateRip Summary
Disc not found in AccurateRip DB.

All Tracks
Album gain : -9.04 dB
Peak : 0.973572
Statistics
Read error : 0
Jitter error (maybe fixed) : 0
Retry sector count : 0
Damaged sector count : 0

Track 01
Filename : /Users/baconfat/Desktop/XLD rips/(Sandy) Alex G - Rocket (2017) [FLAC]/01 Poison Root.flac
Pre-gap length : 00:02:00

Track gain : -6.52 dB
Peak : 0.966064
CRC32 hash (test run) : FDD9BEEB
CRC32 hash : FDD9BEEB
CRC32 hash (skip zero) : 5D38E127
AccurateRip v1 signature : 4B20641F
AccurateRip v2 signature : 3033D4E8
->Track not present in AccurateRip database.
Statistics
Read error : 0
Jitter error (maybe fixed) : 0
Retry sector count : 0
Damaged sector count : 0

Track 02
Filename : /Users/baconfat/Desktop/XLD rips/(Sandy) Alex G - Rocket (2017) [FLAC]/02 Proud.flac

Track gain : -8.13 dB
Peak : 0.973572
CRC32 hash (test run) : AE3B7B30
CRC32 hash : AE3B7B30
CRC32 hash (skip zero) : 0868FAF6
AccurateRip v1 signature : BC9658E3
AccurateRip v2 signature : DCD75E23
->Track not present in AccurateRip database.
Statistics
Read error : 0
Jitter error (maybe fixed) : 0
Retry sector count : 0
Damaged sector count : 0

Track 03
Filename : /Users/baconfat/Desktop/XLD rips/(Sandy) Alex G - Rocket (2017) [FLAC]/03 County.flac

Track gain : -9.03 dB
Peak : 0.966156
CRC32 hash (test run) : 7CC7DA1D
CRC32 hash : 7CC7DA1D
CRC32 hash (skip zero) : E0AE07CE
AccurateRip v1 signature : 8E167F76
AccurateRip v2 signature : 145213BB
->Track not present in AccurateRip database.
Statistics
Read error : 0
Jitter error (maybe fixed) : 0
Retry sector count : 0
Damaged sector count : 0

Track 04
Filename : /Users/baconfat/Desktop/XLD rips/(Sandy) Alex G - Rocket (2017) [FLAC]/04 Bobby.flac

Track gain : -9.19 dB
Peak : 0.966156
CRC32 hash (test run) : EB324150
CRC32 hash : EB324150
CRC32 hash (skip zero) : E4342C64
AccurateRip v1 signature : 98B6FC64
AccurateRip v2 signature : B2774165
->Track not present in AccurateRip database.
Statistics
Read error : 0
Jitter error (maybe fixed) : 0
Retry sector count : 0
Damaged sector count : 0

Track 05
Filename : /Users/baconfat/Desktop/XLD rips/(Sandy) Alex G - Rocket (2017) [FLAC]/05 Witch.flac

Track gain : -9.30 dB
Peak : 0.966156
CRC32 hash (test run) : C314668E
CRC32 hash : C314668E
CRC32 hash (skip zero) : E98CE4DD
AccurateRip v1 signature : 93B04C55
AccurateRip v2 signature : 29C8EAA1
->Track not present in AccurateRip database.
Statistics
Read error : 0
Jitter error (maybe fixed) : 0
Retry sector count : 0
Damaged sector count : 0

Track 06
Filename : /Users/baconfat/Desktop/XLD rips/(Sandy) Alex G - Rocket (2017) [FLAC]/06 Horse.flac

Track gain : -8.76 dB
Peak : 0.966156
CRC32 hash (test run) : F798CE31
CRC32 hash : F798CE31
CRC32 hash (skip zero) : 2249D33E
AccurateRip v1 signature : F24CDC1A
AccurateRip v2 signature : 5DDA39D3
->Track not present in AccurateRip database.
Statistics
Read error : 0
Jitter error (maybe fixed) : 0
Retry sector count : 0
Damaged sector count : 0

Track 07
Filename : /Users/baconfat/Desktop/XLD rips/(Sandy) Alex G - Rocket (2017) [FLAC]/07 Brick.flac

Track gain : -10.09 dB
Peak : 0.966187
CRC32 hash (test run) : 31FDDF06
CRC32 hash : 31FDDF06
CRC32 hash (skip zero) : 7B0C9D6D
AccurateRip v1 signature : B2BFF96B
AccurateRip v2 signature : ABE6EBB8
->Track not present in AccurateRip database.
Statistics
Read error : 0
Jitter error (maybe fixed) : 0
Retry sector count : 0
Damaged sector count : 0

Track 08
Filename : /Users/baconfat/Desktop/XLD rips/(Sandy) Alex G - Rocket (2017) [FLAC]/08 Sportstar.flac

Track gain : -7.84 dB
Peak : 0.966156
CRC32 hash (test run) : 89D8E62D
CRC32 hash : 89D8E62D
CRC32 hash (skip zero) : DD5BFF3D
AccurateRip v1 signature : E3954C0D
AccurateRip v2 signature : ECF15289
->Track not present in AccurateRip database.
Statistics
Read error : 0
Jitter error (maybe fixed) : 0
Retry sector count : 0
Damaged sector count : 0

Track 09
Filename : /Users/baconfat/Desktop/XLD rips/(Sandy) Alex G - Rocket (2017) [FLAC]/09 Judge.flac

Track gain : -8.35 dB
Peak : 0.966156
CRC32 hash (test run) : 0320D5CF
CRC32 hash : 0320D5CF
CRC32 hash (skip zero) : 4890A3DA
AccurateRip v1 signature : B0054EB2
AccurateRip v2 signature : B3236675
->Track not present in AccurateRip database.
Statistics
Read error : 0
Jitter error (maybe fixed) : 0
Retry sector count : 0
Damaged sector count : 0

Track 10
Filename : /Users/baconfat/Desktop/XLD rips/(Sandy) Alex G - Rocket (2017) [FLAC]/10 Rocket.flac

Track gain : -9.72 dB
Peak : 0.966156
CRC32 hash (test run) : E41A00D9
CRC32 hash : E41A00D9
CRC32 hash (skip zero) : 6B00F4E5
AccurateRip v1 signature : 00433156
AccurateRip v2 signature : 1F3F1F59
->Track not present in AccurateRip database.
Statistics
Read error : 0
Jitter error (maybe fixed) : 0
Retry sector count : 0
Damaged sector count : 0

Track 11
Filename : /Users/baconfat/Desktop/XLD rips/(Sandy) Alex G - Rocket (2017) [FLAC]/11 Powerful Man.flac

Track gain : -8.66 dB
Peak : 0.966156
CRC32 hash (test run) : 15886933
CRC32 hash : 15886933
CRC32 hash (skip zero) : 1A1B2402
AccurateRip v1 signature : 269497E1
AccurateRip v2 signature : 9F7FC1C1
->Track not present in AccurateRip database.
Statistics
Read error : 0
Jitter error (maybe fixed) : 0
Retry sector count : 0
Damaged sector count : 0

Track 12
Filename : /Users/baconfat/Desktop/XLD rips/(Sandy) Alex G - Rocket (2017) [FLAC]/12 Alina.flac

Track gain : -9.27 dB
Peak : 0.966187
CRC32 hash (test run) : 2DE21E21
CRC32 hash : 2DE21E21
CRC32 hash (skip zero) : 92F62849
AccurateRip v1 signature : 5A50846E
AccurateRip v2 signature : 78E1F03C
->Track not present in AccurateRip database.
Statistics
Read error : 0
Jitter error (maybe fixed) : 0
Retry sector count : 0
Damaged sector count : 0

Track 13
Filename : /Users/baconfat/Desktop/XLD rips/(Sandy) Alex G - Rocket (2017) [FLAC]/13 Big Fish.flac

Track gain : -8.43 dB
Peak : 0.967163
CRC32 hash (test run) : 17E5E3B0
CRC32 hash : 17E5E3B0
CRC32 hash (skip zero) : 0A200589
AccurateRip v1 signature : 2A91C8E8
AccurateRip v2 signature : E7B7AA64
->Track not present in AccurateRip database.
Statistics
Read error : 0
Jitter error (maybe fixed) : 0
Retry sector count : 0
Damaged sector count : 0

Track 14
Filename : /Users/baconfat/Desktop/XLD rips/(Sandy) Alex G - Rocket (2017) [FLAC]/14 Guilty.flac

Track gain : -9.17 dB
Peak : 0.966156
CRC32 hash (test run) : 466B1040
CRC32 hash : 466B1040
CRC32 hash (skip zero) : 4FFA9140
AccurateRip v1 signature : 100C7613
AccurateRip v2 signature : 866D0031
->Track not present in AccurateRip database.
Statistics
Read error : 0
Jitter error (maybe fixed) : 0
Retry sector count : 0
Damaged sector count : 0

No errors occurred

End of status report

––-BEGIN XLD SIGNATURE––-
oFmFHpRbvIAgB0YgIxWW4iz8PLC0SA7._G5pTCJTFZnEHCaIZvP021MzGCIwufCLOBi1W37Oq8z2lc72aoar5Jxk3h6BZyLUWY3HgmG
––-END XLD SIGNATURE––-


Thanks to the Original customer.