Tags
Language
Tags

Alison Krauss - Windy City (Deluxe Edition) (2017)

Posted By: SERTiL
Alison Krauss - Windy City (Deluxe Edition) (2017)

Alison Krauss - Windy City (Deluxe Edition)
EAC Rip | FLAC (tracks)+cue, m3u, log, full artwork | 60:35 min | 444 MB
Label: Capitol Records - B002625002 | Tracks: 17 | Rls.date: 2017
Country, Pop

The careful selection of covers on Windy City speaks volumes about Alison Krauss’ inspirations as an artist. Here, she offers a warmly nostalgic musical tour of mid-century Nashville. These are deep cuts—among the Bill Monroe b-sides and obscure bluegrass covers are only a few hits by Glen Campbell and Brenda Lee. But Krauss makes every song sound effortlessly her own, from the string-accompanied heartbreak “Losing You” to the gently swinging twang of “Dream of Me."

Alison Krauss - Windy City (Deluxe Edition) (2017)


TRACKLIST

1. Losing You (2:55)
2. It's Goodbye And So Long To You (3:11)
3. Windy City (3:16)
4. I Never Cared For You (2:45)
5. River In The Rain (3:52)
6. Dream Of Me (4:03)
7. Gentle On My Mind (3:34)
8. All Alone Am I (3:26)
9. Poison Love (2:55)
10. You Don’t Know Me (4:19)

Deluxe Edition
11. Make The World Go Away (Feat. Jamey Johnson) (3:04)
12. Till I Gain Control Again (5:19)
13. Angel Flying Too Close To The Ground (4:31)
14. Windy City (Live At The Franklin Theatre, Franklin, Tn-2016) (3:18)
15. River In The Rain (Live At The Franklin Theatre, Franklin, Tn-2016) (4:21)
16. Losing You (Live At The Franklin Theatre, Franklin, Tn-2016) (2:52)
17. I Never Cared For You (Live At The Franklin Theatre, Franklin, Tn-2016) (2:53)

Exact Audio Copy V1.3 from 2. September 2016

EAC extraction logfile from 24. February 2017, 7:35

Alison Krauss / Windy City

Used drive : TSSTcorpCDDVDW SH-224DB Adapter: 1 ID: 0

Read mode : Secure
Utilize accurate stream : Yes
Defeat audio cache : Yes
Make use of C2 pointers : No

Read offset correction : 6
Overread into Lead-In and Lead-Out : No
Fill up missing offset samples with silence : Yes
Delete leading and trailing silent blocks : No
Null samples used in CRC calculations : Yes
Used interface : Native Win32 interface for Win NT & 2000
Gap handling : Appended to previous track

Used output format : User Defined Encoder
Selected bitrate : 1024 kBit/s
Quality : High
Add ID3 tag : No
Command line compressor : C:\Program Files (x86)\Exact Audio Copy\Flac\flac.exe
Additional command line options : -8 -V -T "ARTIST=%artist%" -T "TITLE=%title%" -T "ALBUM=%albumtitle%" -T "DATE=%year%" -T "TRACKNUMBER=%tracknr%" -T "TOTALTRACKS=%numtracks%" -T "GENRE=%genre%" -T "ALBUMARTIST=%albumartist%" -T "ALBUM ARTIST=%albumartist%" -T "COMMENT=EAC Secure Mode, Test & Copy, AccurateRip, FLAC -8" %source%


TOC of the extracted CD

Track | Start | Length | Start sector | End sector
––––––––––––––––––––––––––––-
1 | 0:00.00 | 2:52.61 | 0 | 12960
2 | 2:52.61 | 3:11.16 | 12961 | 27301
3 | 6:04.02 | 3:15.73 | 27302 | 41999
4 | 9:20.00 | 2:45.58 | 42000 | 54432
5 | 12:05.58 | 3:52.23 | 54433 | 71855
6 | 15:58.06 | 4:03.46 | 71856 | 90126
7 | 20:01.52 | 3:34.36 | 90127 | 106212
8 | 23:36.13 | 3:26.13 | 106213 | 121675
9 | 27:02.26 | 2:55.07 | 121676 | 134807
10 | 29:57.33 | 4:19.37 | 134808 | 154269
11 | 34:16.70 | 3:04.39 | 154270 | 168108
12 | 37:21.34 | 5:20.06 | 168109 | 192114
13 | 42:41.40 | 4:31.04 | 192115 | 212443
14 | 47:12.44 | 3:19.69 | 212444 | 227437
15 | 50:32.38 | 4:21.48 | 227438 | 247060
16 | 54:54.11 | 2:55.67 | 247061 | 260252
17 | 57:50.03 | 2:53.59 | 260253 | 273286


Track 1

Filename C:\Users\biafr_000\Music\Alison Krauss - Windy City (2017) [FLAC]\01 - Losing You.wav

Pre-gap length 0:00:02.00

Peak level 97.5 %
Extraction speed 1.6 X
Track quality 100.0 %
Test CRC B6815F81
Copy CRC B6815F81
Track not present in AccurateRip database
Copy OK

Track 2

Filename C:\Users\biafr_000\Music\Alison Krauss - Windy City (2017) [FLAC]\02 - It's Goodbye And So Long To You.wav

Peak level 100.0 %
Extraction speed 1.5 X
Track quality 99.9 %
Test CRC AEBD537C
Copy CRC AEBD537C
Track not present in AccurateRip database
Copy OK

Track 3

Filename C:\Users\biafr_000\Music\Alison Krauss - Windy City (2017) [FLAC]\03 - Windy City.wav

Peak level 98.7 %
Extraction speed 1.9 X
Track quality 100.0 %
Test CRC 81DC6602
Copy CRC 81DC6602
Track not present in AccurateRip database
Copy OK

Track 4

Filename C:\Users\biafr_000\Music\Alison Krauss - Windy City (2017) [FLAC]\04 - I Never Cared For You.wav

Peak level 97.7 %
Extraction speed 1.9 X
Track quality 100.0 %
Test CRC DBEBC09F
Copy CRC DBEBC09F
Track not present in AccurateRip database
Copy OK

Track 5

Filename C:\Users\biafr_000\Music\Alison Krauss - Windy City (2017) [FLAC]\05 - River In The Rain.wav

Peak level 97.8 %
Extraction speed 2.2 X
Track quality 100.0 %
Test CRC C9DD6C2D
Copy CRC C9DD6C2D
Track not present in AccurateRip database
Copy OK

Track 6

Filename C:\Users\biafr_000\Music\Alison Krauss - Windy City (2017) [FLAC]\06 - Dream Of Me.wav

Peak level 99.2 %
Extraction speed 2.3 X
Track quality 100.0 %
Test CRC 9C6220A2
Copy CRC 9C6220A2
Track not present in AccurateRip database
Copy OK

Track 7

Filename C:\Users\biafr_000\Music\Alison Krauss - Windy City (2017) [FLAC]\07 - Gentle On My Mind.wav

Peak level 97.5 %
Extraction speed 2.0 X
Track quality 99.9 %
Test CRC CFB811C0
Copy CRC CFB811C0
Track not present in AccurateRip database
Copy OK

Track 8

Filename C:\Users\biafr_000\Music\Alison Krauss - Windy City (2017) [FLAC]\08 - All Alone Am I.wav

Peak level 85.2 %
Extraction speed 2.0 X
Track quality 99.9 %
Test CRC C9E9BE9E
Copy CRC C9E9BE9E
Track not present in AccurateRip database
Copy OK

Track 9

Filename C:\Users\biafr_000\Music\Alison Krauss - Windy City (2017) [FLAC]\09 - Poison Love.wav

Peak level 100.0 %
Extraction speed 2.5 X
Track quality 100.0 %
Test CRC 5F2FBB60
Copy CRC 5F2FBB60
Track not present in AccurateRip database
Copy OK

Track 10

Filename C:\Users\biafr_000\Music\Alison Krauss - Windy City (2017) [FLAC]\10 - You Don't Know Me.wav

Peak level 96.9 %
Extraction speed 2.8 X
Track quality 100.0 %
Test CRC F54D9FBF
Copy CRC F54D9FBF
Track not present in AccurateRip database
Copy OK

Track 11

Filename C:\Users\biafr_000\Music\Alison Krauss - Windy City (2017) [FLAC]\11 - Make The World Go Away.wav

Peak level 97.3 %
Extraction speed 2.7 X
Track quality 100.0 %
Test CRC 53A38A90
Copy CRC 53A38A90
Track not present in AccurateRip database
Copy OK

Track 12

Filename C:\Users\biafr_000\Music\Alison Krauss - Windy City (2017) [FLAC]\12 - Till I Gain Control Again.wav

Peak level 96.8 %
Extraction speed 3.1 X
Track quality 100.0 %
Test CRC FED50D56
Copy CRC FED50D56
Track not present in AccurateRip database
Copy OK

Track 13

Filename C:\Users\biafr_000\Music\Alison Krauss - Windy City (2017) [FLAC]\13 - Angel Flying Too Close To The Ground.wav

Peak level 100.0 %
Extraction speed 3.2 X
Track quality 100.0 %
Test CRC FA269423
Copy CRC FA269423
Track not present in AccurateRip database
Copy OK

Track 14

Filename C:\Users\biafr_000\Music\Alison Krauss - Windy City (2017) [FLAC]\14 - Windy City (Live).wav

Peak level 98.3 %
Extraction speed 3.1 X
Track quality 100.0 %
Test CRC ADD3E33D
Copy CRC ADD3E33D
Track not present in AccurateRip database
Copy OK

Track 15

Filename C:\Users\biafr_000\Music\Alison Krauss - Windy City (2017) [FLAC]\15 - River In The Rain (Live).wav

Peak level 97.8 %
Extraction speed 3.3 X
Track quality 100.0 %
Test CRC 564D181E
Copy CRC 564D181E
Track not present in AccurateRip database
Copy OK

Track 16

Filename C:\Users\biafr_000\Music\Alison Krauss - Windy City (2017) [FLAC]\16 - Losing You (Live).wav

Peak level 97.7 %
Extraction speed 3.2 X
Track quality 100.0 %
Test CRC 43C17D95
Copy CRC 43C17D95
Track not present in AccurateRip database
Copy OK

Track 17

Filename C:\Users\biafr_000\Music\Alison Krauss - Windy City (2017) [FLAC]\17 - I Never Cared For You (Live).wav

Peak level 98.3 %
Extraction speed 3.2 X
Track quality 100.0 %
Test CRC 278317C5
Copy CRC 278317C5
Track not present in AccurateRip database
Copy OK


None of the tracks are present in the AccurateRip database

No errors occurred

End of status report

–– CUETools DB Plugin V2.1.6

[CTDB TOCID: _WHK7catrLyZ.xw3etg2hbklK5o-] found
Submit result: _WHK7catrLyZ.xw3etg2hbklK5o- has been confirmed
Track | CTDB Status
1 | (3/3) Accurately ripped
2 | (3/3) Accurately ripped
3 | (3/3) Accurately ripped
4 | (3/3) Accurately ripped
5 | (3/3) Accurately ripped
6 | (3/3) Accurately ripped
7 | (3/3) Accurately ripped
8 | (3/3) Accurately ripped
9 | (3/3) Accurately ripped
10 | (3/3) Accurately ripped
11 | (3/3) Accurately ripped
12 | (3/3) Accurately ripped
13 | (3/3) Accurately ripped
14 | (3/3) Accurately ripped
15 | (3/3) Accurately ripped
16 | (3/3) Accurately ripped
17 | (3/3) Accurately ripped


==== Log checksum D5E8B89BB3B4B46613E9D0F2F2312B1D57FF31129BCC1CDF3D9D166493E14D3F ====


Alison Krauss - Windy City (Deluxe Edition) (2017)


Thanks to the Original customer.