Subcategories

Jack Johnson - All The Light Above It Too (2017)

Posted By: SERTiL
Jack Johnson - All The Light Above It Too (2017)

Jack Johnson - All The Light Above It Too
EAC Rip | FLAC (tracks)+cue, log, m3u, scans | 38:06 min | 255 MB
Label: Brushfire Records ‎– B0027186-02U | Tracks: 10 | Rls.date: 2017
Alternative, Acoustic, Singer-Songwriter

Jack Johnson returns with his 8th album “All The Light Above It Too”. The album is being led by first single “My Mind Is For Sale” which will be impacting AAA radio this July, followed by a run of North American tour dates.

„All The Light Above It Too“ was recorded over the past year at Johnson’s Hawaii based Mango Tree Studio. For the first time in years, Johnson handled most of the instrumentation himself, echoing the four-track recordings that launched his career over 17 years ago.

“This album shares what has been on my mind during the past year or so,” says Johnson. “A year in which I sailed through the North Atlantic Gyre for a documentary about plastic pollution in the ocean. A year in which Trump was elected as the President of the United States. A year in which I camped, surfed, got stitches, explored, dreamed, shared time and endless conversations with my family and friends…all of which inspired these songs. I usually make sketches of the songs first then set up a time to actually record the album. This time around the original sketches became the final versions. I didn’t want to lose any of the spirit that a song has in its rawest form.” To finish out the record Johnson called upon producer Robbie Lackritz (Feist, Bahamas), along with his longtime band mates to play on a few of the tracks.

Jack Johnson - All The Light Above It Too (2017)


TRACKLIST
01. Subplots (04:29)
02. You Can’t Control It (04:09)
03. Sunsets For Somebody Else (03:30)
04. My Mind Is For Sale (03:59)
05. Daybreaks (04:00)
06. Big Sur (02:52)
07. Love Song #16 (03:01)
08. Is One Moon Enough? (04:10)
09. Gather (04:15)
10. Fragments (From the Film "The Smog of the Sea") (03:41)

Exact Audio Copy V1.1 from 23. June 2015

EAC extraction logfile from 8. September 2017, 22:08

Jack Johnson / All The Light Above It Too

Used drive : HL-DT-STDVDRAM GH24NSD1 Adapter: 0 ID: 0

Read mode : Secure
Utilize accurate stream : Yes
Defeat audio cache : Yes
Make use of C2 pointers : No

Read offset correction : 6
Overread into Lead-In and Lead-Out : No
Fill up missing offset samples with silence : Yes
Delete leading and trailing silent blocks : No
Null samples used in CRC calculations : Yes
Used interface : Installed external ASPI interface

Used output format : Internal WAV Routines
Sample format : 44.100 Hz; 16 Bit; Stereo


TOC of the extracted CD

Track | Start | Length | Start sector | End sector
––––––––––––––––––––––––––––-
1 | 0:00.00 | 4:29.25 | 0 | 20199
2 | 4:29.25 | 4:09.37 | 20200 | 38911
3 | 8:38.62 | 3:30.35 | 38912 | 54696
4 | 12:09.22 | 3:59.63 | 54697 | 72684
5 | 16:09.10 | 4:00.59 | 72685 | 90743
6 | 20:09.69 | 2:52.55 | 90744 | 103698
7 | 23:02.49 | 3:01.45 | 103699 | 117318
8 | 26:04.19 | 4:10.66 | 117319 | 136134
9 | 30:15.10 | 4:15.00 | 136135 | 155259
10 | 34:30.10 | 3:41.23 | 155260 | 171857


Range status and errors

Selected range

Filename A:\Spotnet\EAC\Jack Johnson - All The Light\Jack Johnson - All The Light Above It Too.wav

Peak level 100.0 %
Extraction speed 6.5 X
Range quality 99.9 %
Test CRC B354A485
Copy CRC B354A485
Copy OK

No errors occurred


AccurateRip summary

Track 1 not present in database
Track 2 not present in database
Track 3 not present in database
Track 4 not present in database
Track 5 not present in database
Track 6 not present in database
Track 7 not present in database
Track 8 not present in database
Track 9 not present in database
Track 10 not present in database

None of the tracks are present in the AccurateRip database

End of status report


Jack Johnson - All The Light Above It Too (2017)


Thanks to the Original customer.