Tags
Language
Tags
February 2023
Su Mo Tu We Th Fr Sa
29 30 31 1 2 3 4
5 6 7 8 9 10 11
12 13 14 15 16 17 18
19 20 21 22 23 24 25
26 27 28 1 2 3 4

Amy Dickson - Glass (2017)

Posted By: SERTiL
Amy Dickson - Glass (2017)

Amy Dickson - Glass
EAC Rip | FLAC (tracks)+cue, log, d.booklet | 56:33 min | 252 MB
Label: Sony Classical - 88985411942 | Tracks: 08 | Rls.date: 2017
Classical

A ground-breaking recording of some of Philip Glass’s most iconic music, transcribed for saxophone by Classic BRIT Award-winning classical saxophonist, Amy Dickson, in celebration of Philip Glass’s 80th birthday. Amy Dickson’s love for Philip Glass started 10 years ago when she discovered his violin concerto, a work which features on this album. This expressive work is arranged for saxophone by Dickson herself, as is the violin sonata for which Dickson had to learn a new technique to master the work; circular breathing.
Two more works feature in the album, both taken from Glass’ soundtrack to the ‘The Hours’, which won the “Best Original Music” award at the British Academy Film Awards in 2003. ‘Escape’ and ‘Morning Passages’ are pieces of intimate chamber music, both arranged by Amy’s husband, composer Jamie Barclay.

BBC Music Magazine Review of the Glass Concerto:

“Amy Dickson’s arrangement for soprano saxophone actually works better than the original (which isn’t too surprising: Glass said he wrote the work for his own sound, not that of the violin). The fast passages sound crisper; the bubbling arpeggios and long slow notes have new varied textures thanks to the saxophone’s reedy depth; the insistent solo interjections in the finale now pierce the orchestra; and occasional violin-specific techniques, such as multiple stopping, are translated with no musical loss. It’s helped by a fine, clear recording (with the best percussion sound of any) with well-focussed wind lines, and the punchiest, best-driven brass power in the nicely-near-chaotic finale”.

TRACKLIST
1. Sonata for Violin and Piano (Arr. for Saxophone and Orchestra) – Movement I
2. Sonata for Violin and Piano (Arr. for Saxophone and Orchestra) – Movement II
3. Sonata for Violin and Piano (Arr. for Saxophone and Orchestra) – Movement III
4. Morning Passages (From “The Hours”)
5. Escape! (from “The Hours”)
6. Concerto for Violin and Orchestra, Arr. for Saxophone and Orchestra – I. Crotchet = 104
7. Concerto for Violin and Orchestra, Arr. for Saxophone and Orchestra – II. Crotchet = 108
8. Concerto for Violin and Orchestra, Arr. for Saxophone and Orchestra – III. Crotchet = 150

Exact Audio Copy V1.3 from 2. September 2016

EAC extraction logfile from 20. April 2017, 12:22

Amy Dickson / Glass

Used drive : LITE-ON DVDRW SOHW-832S Adapter: 1 ID: 0

Read mode : Secure
Utilize accurate stream : Yes
Defeat audio cache : Yes
Make use of C2 pointers : No

Read offset correction : 12
Overread into Lead-In and Lead-Out : No
Fill up missing offset samples with silence : Yes
Delete leading and trailing silent blocks : No
Null samples used in CRC calculations : Yes
Used interface : Native Win32 interface for Win NT & 2000
Gap handling : Appended to previous track

Used output format : User Defined Encoder
Selected bitrate : 1024 kBit/s
Quality : High
Add ID3 tag : No
Command line compressor : C:\Program Files\Exact Audio Copy\Flac\flac.exe
Additional command line options : -8 -e -p -V -T "ARTIST=%artist%" -T "TITLE=%title%" -T "ALBUM=%albumtitle%" -T "DATE=%year%" -T "TRACKNUMBER=%tracknr%" -T "GENRE=%genre%" -T "PERFORMER=%albuminterpret%" -T "COMPOSER=%composer%" %haslyrics%–tag-from-file=LYRICS="%lyricsfile%"%haslyrics% -T "ALBUMARTIST=%albumartist%" -T "DISCNUMBER=%cdnumber%" -T "TOTALDISCS=%totalcds%" -T "TOTALTRACKS=%numtracks%" -T "COMMENT=%comment%" %source% -o %dest%


TOC of the extracted CD

Track | Start | Length | Start sector | End sector
––––––––––––––––––––––––––––-
1 | 0:00.00 | 6:07.68 | 0 | 27592
2 | 6:07.68 | 7:25.23 | 27593 | 60990
3 | 13:33.16 | 6:42.34 | 60991 | 91174
4 | 20:15.50 | 5:39.22 | 91175 | 116621
5 | 25:54.72 | 4:20.57 | 116622 | 136178
6 | 30:15.54 | 6:48.06 | 136179 | 166784
7 | 37:03.60 | 9:05.43 | 166785 | 207702
8 | 46:09.28 | 10:27.08 | 207703 | 254735


Track 1

Filename R:\Amy Dickson - Glass (2017) {88985411942} [FLAC]\01 - Sonata for Violin and Piano (arr. for Saxophone)- Movement I.wav

Pre-gap length 0:00:02.00

Peak level 86.7 %
Extraction speed 4.0 X
Track quality 100.0 %
Test CRC C60359E1
Copy CRC C60359E1
Accurately ripped (confidence 1) [15B63DF1] (AR v2)
Copy OK

Track 2

Filename R:\Amy Dickson - Glass (2017) {88985411942} [FLAC]\02 - Sonata for Violin and Piano (arr. for Saxophone)- Movement II.wav

Peak level 87.4 %
Extraction speed 4.6 X
Track quality 100.0 %
Test CRC C1B4D767
Copy CRC C1B4D767
Accurately ripped (confidence 1) [3BA40785] (AR v2)
Copy OK

Track 3

Filename R:\Amy Dickson - Glass (2017) {88985411942} [FLAC]\03 - Sonata for Violin and Piano (arr. for Saxophone)- Movement III.wav

Peak level 84.6 %
Extraction speed 5.1 X
Track quality 100.0 %
Test CRC 56794BB0
Copy CRC 56794BB0
Accurately ripped (confidence 1) [1B6CC5B4] (AR v2)
Copy OK

Track 4

Filename R:\Amy Dickson - Glass (2017) {88985411942} [FLAC]\04 - Morning Passages (from ''The Hours'').wav

Peak level 87.4 %
Extraction speed 5.3 X
Track quality 99.9 %
Test CRC 218AA094
Copy CRC 218AA094
Accurately ripped (confidence 1) [383FFCE0] (AR v2)
Copy OK

Track 5

Filename R:\Amy Dickson - Glass (2017) {88985411942} [FLAC]\05 - Escape! (from ''The Hours'').wav

Peak level 89.3 %
Extraction speed 5.7 X
Track quality 100.0 %
Test CRC DA82D667
Copy CRC DA82D667
Accurately ripped (confidence 1) [071FAC61] (AR v2)
Copy OK

Track 6

Filename R:\Amy Dickson - Glass (2017) {88985411942} [FLAC]\06 - Concerto for Violin and Orchestra (arr. for Saxophone)- I. Crotchet = 104.wav

Peak level 94.1 %
Extraction speed 6.2 X
Track quality 100.0 %
Test CRC 42272066
Copy CRC 42272066
Accurately ripped (confidence 1) [B9FB4F93] (AR v2)
Copy OK

Track 7

Filename R:\Amy Dickson - Glass (2017) {88985411942} [FLAC]\07 - Concerto for Violin and Orchestra (arr. for Saxophone)- II. Crotchet = 108.wav

Peak level 27.6 %
Extraction speed 6.6 X
Track quality 100.0 %
Test CRC 2ACF3068
Copy CRC 2ACF3068
Accurately ripped (confidence 1) [97575DEF] (AR v2)
Copy OK

Track 8

Filename R:\Amy Dickson - Glass (2017) {88985411942} [FLAC]\08 - Concerto for Violin and Orchestra (arr. for Saxophone)- III. Crotchet = 150.wav

Peak level 95.4 %
Extraction speed 6.3 X
Track quality 100.0 %
Test CRC 4563D6EF
Copy CRC 4563D6EF
Accurately ripped (confidence 1) [2B8E0DB6] (AR v2)
Copy OK


All tracks accurately ripped

No errors occurred

End of status report

==== Log checksum 16B1FD7E03DC2AC9425DD6079F7534D57C7A0A6012C0F4BC4274006A62102926 ====


Amy Dickson - Glass (2017)


Thanks to the Original customer.