Tags
Language
Tags

Andras Schiff plays Bach: French Suites Nos. 1-6; Overture in the French Style in B minor; Italian Concerto (2011) [Blu-Ray]

Posted By: Vilboa
Andras Schiff plays Bach: French Suites Nos. 1-6; Overture in the French Style in B minor; Italian Concerto (2011) [Blu-Ray]

Andras Schiff plays Bach: French Suites Nos. 1-6; Overture in the French Style in B minor; Italian Concerto in F major (2011) [Blu-Ray]
BluRay | BDMV | MPEG-4 AVC Video / 24110 kbps / 1080i / 29,970 fps | 131 min | 36,8 Gb
Audio1: LPCM Audio / 2.0 / 16-bit | Audio2: DTS-HD Master Audio / 5.0 / 48 kHz / 3528 kbps / 24-bit
––––––
BluRay-rip | AVC | MKV 1920x1080 / 6215 kbps / 29,970 fps | 131 min | 7,09 Gb
Audio: DTS / 5ch / 48.0 KHz / 24 bits
Classical | EuroArts

Surely Bach’s French Suites, which he composed during his years at Cöthen (1717–1723), are among the finest inducements to practise that any teacher has ever made to a pupil. In this case Bach wrote them for his young wife, Anna Magdalena. The over-riding impression left by these suites is one of endearing tunefulness. Clavier-Übung II is a later collection of didactic keyboard pieces. It comprises two greatly contrasted works: the Italian Concerto and the Overture in the French Style. These performances admirably demonstrate the thoughtful and persuasive approach that András Schiff adopts when performing Bach. Recorded live at the Bachfest 2010, Protestant Reformed Church of Leipzig, 11 June 2010

Cast:
András Schiff, piano

Track List:
French Suites Nos. 1–6, BWV 812-817
Overture in the French Style in B minor, BWV 831
Italian Concerto in F major, BWV 971
Documentary "Schiff explains Bach"


Disc Title: Schiff Plays Bach
Disc Size: 39 546 567 466 bytes
Protection: AACS
BD-Java: Yes
Playlist: 00004.MPLS
Size: 30 605 248 512 bytes
Length: 2:11:33.518
Total Bitrate: 31,02 Mbps
Video: MPEG-2 Video / 24110 kbps / 1080i / 29,970 fps / 16:9
Audio: German / LPCM Audio / 2.0 / 48 kHz / 1536 kbps / 16-bit
Audio: German / DTS-HD Master Audio / 5.0 / 48 kHz / 3528 kbps / 24-bit (DTS Core: 5.0 / 48 kHz / 1509 kbps / 24-bit)


General
Unique ID : 194911256694734195598171038916350521115 (0x92A28AE64DB6A5EFAC646FC5214F2F1B)
Complete name : C:\Schiff Plays Bach.mkv
Format : Matroska
Format version : Version 2
File size : 7.10 GiB
Duration : 2h 11mn
Overall bit rate : 7 727 Kbps
Movie name : Schiff Plays Bach 01
Encoded date : UTC 2021-07-04 06:53:05
Writing application : DVDFab 9.1.6.8
Writing library : libebml v0.7.8 + libmatroska v0.8.1

Video
ID : 1
Format : AVC
Format/Info : Advanced Video Codec
Format profile : High@L4.1
Format settings, CABAC : Yes
Format settings, ReFrames : 2 frames
Codec ID : V_MPEG4/ISO/AVC
Duration : 2h 11mn
Bit rate : 6 215 Kbps
Width : 1 920 pixels
Height : 1 080 pixels
Display aspect ratio : 16:9
Frame rate mode : Constant
Frame rate : 29.970 fps
Color space : YUV
Chroma subsampling : 4:2:0
Bit depth : 8 bits
Scan type : Progressive
Bits/(Pixel*Frame) : 0.100
Stream size : 5.57 GiB (78%)
Writing library : x264 core 142
Encoding settings : cabac=1 / ref=1 / deblock=1:-1:-1 / analyse=0x3:0 / me=hex / subme=5 / psy=0 / mixed_ref=0 / me_range=16 / chroma_me=1 / trellis=0 / 8x8dct=1 / cqm=0 / deadzone=21,11 / fast_pskip=1 / chroma_qp_offset=0 / threads=8 / lookahead_threads=2 / sliced_threads=0 / nr=0 / decimate=1 / interlaced=0 / bluray_compat=0 / constrained_intra=0 / bframes=2 / b_pyramid=0 / b_adapt=1 / b_bias=0 / direct=1 / weightb=1 / open_gop=0 / weightp=0 / keyint=24 / keyint_min=13 / scenecut=40 / intra_refresh=0 / rc=abr / mbtree=0 / bitrate=6215 / ratetol=1.0 / qcomp=0.60 / qpmin=0 / qpmax=69 / qpstep=4 / ip_ratio=1.40 / pb_ratio=1.30 / aq=1:1.00
Default : Yes
Forced : No
Color primaries : BT.709
Transfer characteristics : BT.709
Matrix coefficients : BT.709
Color range : Limited

Audio
ID : 2
Format : DTS
Format/Info : Digital Theater Systems
Mode : 16
Format settings, Endianness : Big
Codec ID : A_DTS
Duration : 2h 11mn
Bit rate mode : Constant
Bit rate : 1 509 Kbps
Channel(s) : 5 channels
Channel positions : Front: L C R, Side: L R
Sampling rate : 48.0 KHz
Bit depth : 24 bits
Compression mode : Lossy
Stream size : 1.39 GiB (20%)
Language : German
Default : Yes
Forced : No

Menu
00:00:00.000 : en:Chapter 01
00:00:36.903 : en:Chapter 02
00:03:56.736 : en:Chapter 03
00:05:42.108 : en:Chapter 04
00:08:06.786 : en:Chapter 05
00:10:54.086 : en:Chapter 06
00:12:58.010 : en:Chapter 07
00:16:13.639 : en:Chapter 08
00:17:58.777 : en:Chapter 09
00:20:54.286 : en:Chapter 10
00:22:19.971 : en:Chapter 11
00:25:24.222 : en:Chapter 12
00:27:13.798 : en:Chapter 13
00:30:20.285 : en:Chapter 14
00:32:08.226 : en:Chapter 15
00:34:49.253 : en:Chapter 16
00:36:11.369 : en:Chapter 17
00:38:48.726 : en:Chapter 18
00:40:50.581 : en:Chapter 19
00:43:03.047 : en:Chapter 20
00:44:45.482 : en:Chapter 21
00:47:03.420 : en:Chapter 22
00:48:11.521 : en:Chapter 23
00:49:36.640 : en:Chapter 24
00:50:18.915 : en:Chapter 25
00:52:29.679 : en:Chapter 26
00:55:30.460 : en:Chapter 27
00:57:03.353 : en:Chapter 28
01:01:19.008 : en:Chapter 29
01:02:27.910 : en:Chapter 30
01:03:34.510 : en:Chapter 31
01:05:21.284 : en:Chapter 32
01:08:46.989 : en:Chapter 33
01:11:25.914 : en:Chapter 34
01:12:57.740 : en:Chapter 35
01:16:07.663 : en:Chapter 36
01:17:14.429 : en:Chapter 37
01:20:17.712 : en:Chapter 38
01:21:45.200 : en:Chapter 39
01:26:24.112 : en:Chapter 40
01:38:55.296 : en:Chapter 41
01:41:08.228 : en:Chapter 42
01:44:24.191 : en:Chapter 43
01:46:31.051 : en:Chapter 44
01:49:36.770 : en:Chapter 45
01:52:12.659 : en:Chapter 46
01:54:11.544 : en:Chapter 47
01:58:11.851 : en:Chapter 48
02:01:57.310 : en:Chapter 49
02:06:23.809 : en:Chapter 50
02:10:33.325 : en:Chapter 51
02:11:27.246 : en:Chapter 52

All screenshots taken from BDRip

Andras Schiff plays Bach: French Suites Nos. 1-6; Overture in the French Style in B minor; Italian Concerto (2011) [Blu-Ray]