Tags
Language
Tags

André Previn & Russ Freeman - Double Play! (1957) [Reissue 1992]

Posted By: gribovar
André Previn & Russ Freeman - Double Play! (1957) [Reissue 1992]

Andre Previn & Russ Freeman - Double Play! (1957) [Reissue 1992]
EAC Rip | FLAC (image+.cue+log) - 239 MB | Covers (4 MB) included
Genre: Jazz | RAR 3% Rec. | Label: Contemporary Records (OJCCD-157-2 (S-7537))

Pianists André Previn and Russ Freeman team up with drummer Shelly Manne in a trio to play eight of their originals (along with the standard "Take Me Out to the Ball Game"), all given titles having to do with baseball. Double Play! was advertised as the first time that two pianists recorded what was then modern jazz together. Previn and Freeman had very complementary styles, making it difficult to know who was playing when, although a complete play-by-play is included.
Tracklist:
01. Take Me Out To The Ball Game
02. Who's On First?
03. Called On Account Of Rain
04. In The Cellar Blues
05. Batter Up
06. Double Play
07. Safe At Home
08. Fungo
09. Strike Out The Band

Total time: 41:50

Exact Audio Copy V0.99 prebeta 5 from 4. May 2009

EAC extraction logfile from 21. July 2010, 19:23

Andre Previn and Russ Freeman / Double Play!

Used drive : TSSTcorpDVD+-RW TS-U633A Adapter: 0 ID: 1

Read mode : Secure
Utilize accurate stream : Yes
Defeat audio cache : Yes
Make use of C2 pointers : No

Read offset correction : 6
Overread into Lead-In and Lead-Out : No
Fill up missing offset samples with silence : Yes
Delete leading and trailing silent blocks : No
Null samples used in CRC calculations : Yes
Used interface : Native Win32 interface for Win NT & 2000

Used output format : Internal WAV Routines
Sample format : 44.100 Hz; 16 Bit; Stereo


TOC of the extracted CD

Track | Start | Length | Start sector | End sector
––––––––––––––––––––––––––––-
1 | 0:00.00 | 3:04.53 | 0 | 13852
2 | 3:04.53 | 3:37.12 | 13853 | 30139
3 | 6:41.65 | 5:11.58 | 30140 | 53522
4 | 11:53.48 | 5:01.22 | 53523 | 76119
5 | 16:54.70 | 3:58.50 | 76120 | 94019
6 | 20:53.45 | 4:58.45 | 94020 | 116414
7 | 25:52.15 | 6:03.05 | 116415 | 143644
8 | 31:55.20 | 5:42.00 | 143645 | 169294
9 | 37:37.20 | 4:12.43 | 169295 | 188237


Range status and errors

Selected range

Filename C:\_Arc\EAC_Out\Andre Previn and Russ Freeman - Double Play!\Andre Previn and Russ Freeman - Double Play!.wav

Peak level 100.0 %
Range quality 100.0 %
Copy CRC 8CCCC612
Copy OK

No errors occurred


AccurateRip summary

Track 1 not present in database
Track 2 not present in database
Track 3 not present in database
Track 4 not present in database
Track 5 not present in database
Track 6 not present in database
Track 7 not present in database
Track 8 not present in database
Track 9 not present in database

None of the tracks are present in the AccurateRip database

End of status report

[CUETools log; Date: 11.09.2018 21:45:05; Version: 2.1.4]
[CTDB TOCID: zIvFm9ojel9BcvB1pSMUvHBK8aY-] found.
Track | CTDB Status
1 | (6/6) Accurately ripped
2 | (6/6) Accurately ripped
3 | (6/6) Accurately ripped
4 | (6/6) Accurately ripped
5 | (6/6) Accurately ripped
6 | (6/6) Accurately ripped
7 | (6/6) Accurately ripped
8 | (6/6) Accurately ripped
9 | (6/6) Accurately ripped
[AccurateRip ID: 000d8201-00656cff-6d09cd09] found.
Track [ CRC | V2 ] Status
01 [30e0e533|611ffa94] (0+5/7) Accurately ripped
02 [5e024540|a1d3ac61] (0+5/7) Accurately ripped
03 [5bba8537|b7ee055a] (0+5/7) Accurately ripped
04 [6e7c497c|2e0d3f6f] (0+5/7) Accurately ripped
05 [7282f8fd|015c2515] (0+5/7) Accurately ripped
06 [06198b46|660e0d8b] (0+5/7) Accurately ripped
07 [406f3fbd|a7b8a068] (0+5/7) Accurately ripped
08 [6f0bfc85|733f0ade] (0+5/7) Accurately ripped
09 [d1eb98e8|85288185] (0+5/7) Accurately ripped
Offsetted by 284:
01 [bc69ef4c] (2/7) Accurately ripped
02 [aca8db75] (2/7) Accurately ripped
03 [03eed1f9] (2/7) Accurately ripped
04 [5052816c] (2/7) Accurately ripped
05 [456e1d7d] (2/7) Accurately ripped
06 [9b8f552a] (2/7) Accurately ripped
07 [6e209766] (2/7) Accurately ripped
08 [d609afd1] (2/7) Accurately ripped
09 [d265a7be] (2/7) Accurately ripped

Track Peak [ CRC32 ] [W/O NULL] [ LOG ]
– 100,0 [8CCCC612] [DA98CAD2] CRC32
01 97,3 [5F6CCD5A] [21F01A12]
02 99,8 [78537F2A] [292D1D2C]
03 51,0 [3FCF1D32] [09C8C2DB]
04 84,4 [33ED583A] [3E5B4393]
05 100,0 [0FF8A72E] [413416B3]
06 99,8 [AEE20B08] [5511F696]
07 78,2 [763A1278] [201C4E7B]
08 100,0 [1BDC5142] [A4A2AD1E]
09 100,0 [585019BF] [04FE8606]

Thanks to barin99