Tags
Language
Tags

Sir Andrew Davis, Scottish Chamber Orchestra - Elgar: The Starlight Express (2012)

Posted By: ArlegZ
Sir Andrew Davis, Scottish Chamber Orchestra - Elgar: The Starlight Express (2012)

Sir Andrew Davis, Scottish Chamber Orchestra - Elgar: The Starlight Express (2012)
EAC | FLAC | Image (Cue & Log) ~ 530 Mb | Total time: 138:08 | Digital booklet
Classical | Label: Stradivarius | # CHSA 5111(2) | Recorded: 2012

The Starlight Express was adapted from a book by Algernon Blackwood, A Prisoner in Fairyland, for a theatre production in the West End during the First World War, with music by Sir Edward Elgar. Combining the usually contrasting elements of fairytale and melodrama, The Starlight Express depicts the fantasy world inhabited by a group of children, who possess a magical ‘starlight’ quality that has been lost by the adults around them. This is the most comprehensive recorded version of The Starlight Express to date, based on a new score prepared by the Elgar Edition, which has been adapted by the conductor Sir Andrew Davis.

Performer:
Elin Manahan Thomas, soprano (Laugher / Jane Anne)
Roderick Williams, baritone (Organ-grinder / Gardener)
Simon Callow, narrator
Scottish Chamber Orchestra
Sir Andrew Davis, conductor

Track List:
CD1:
Edward Elgar (1857–1934)
The Starlight Express, Op. 78
01. Act I Scene 1: To the Children
02. Act I Scene 1: In the village of Bourcelles in the Swiss …
03. Act I Scene 1: Just then a lamplighter …
04. Act I Scene 1: At that time, Henry had told him about the old railway …
05. Act I Scene 1: … the mother of them all
06. Act I Scene 1: Oh! But I'm forgetting the most important one of all.
07. Act I Scene 1: They were always eager to hear his poetry
08. Act I Scene 1: And suddenly a new, enormous thing stirred in their father's heart
09. Act I Scene 1: As though on cue
10. Act I Scene 1: To the Children: That's odd, said Mother
11. Act I Scene 1: … gold and had put it on for warmth against the cool evening air
12. Act I Scene 1: Before them stood an extremely dishevelled figure holding a suitcase
13. Act I Scene 1: As Daddy took charge of the luggage
14. Act I Scene 1: We want to tell you something
15. Act I Scene 1: All the rules I swear to keep
16. Act I Scene 1: Are you sure you have everything you need?
17. Act II Scene 1: The Blue-eyed Fairy
18. Act II Scene 1: They found a clearing with the open sky above them
19. Act II Scene 1: Henry explained that the Pleiades had been attendants upon Artemis …
20. Act II Scene 1: The Sun has Gone
21. Act II Scene 1: The Sun has Gone: Now, cats are curious creatures, and Riquette was no exception
22. Act II Scene 1: Turning towards the open window …
23. Act II Scene 1: At length Jinny came out of the cave and came over to them
24. Act II Scene 1: Then there's Madame Jequier and dear Miss Waghorn
25. Act II Scene 1: Could it be?
26. Act II Scene 1: And with that the first passenger hurried by them
27. Act II Scene 1: The Sweep
28. Act II Scene 1: Then a fantastic, light, twirling creature …
29. Act II Scene 1: I'm ev'rywhere
30. Act II Scene 1: And the shabby Tramp, playing his barrel organ
31. Act II Scene 1: Well, let's see now
32. Act II Scene 1: Wake up, you little Night Winds
33. Act II Scene 1: Dance of the Winds
34. Act II Scene 1: But where's Cousin Henry?
35. Act II Scene 1: I'm ev'rywhere: Ah! Anyone gazing skywards at that moment …
36. Act II Scene 1: Sun Dance
37. Act II Scene 2: Madame Jequier's constant anxiety …
38. Act II Scene 2: Dandelions, Daffodils
39. Act II Scene 2: In her attic chamber above
40. Act II Scene 2: Henry turned to the children
41. Act II Scene 3: At the Citadelle
42. Act II Scene 3: O, stars shine brightly
43. Act II Scene 3: The Sprites had almost finished their task
44. Act II Scene 3: The Sprites flitted out, back to the Starlight Express
45. Act II Scene 3: Dawn Song
CD2:
01. Act III Scene 1: My Old Tunes
02. Act III Scene 1: Dandelions, Daffodils
03. Act III Scene 1: Miss Waghorn, whose confusion of mind …
04. Act III Scene 1: My main idea is this …
05. Act III Scene 1: Then Mother spoke …
06. Act III Scene 1: A few days later Henry left to return to London
07. Act III Scene 2: It was late evening on the day of his arrival
08. Act III Scene 2: And suddenly he remembered an extraordinary conversation …
09. Act III Scene 2: All three children, perhaps sent back from their nocturnal enterprises …
10. Act III Scene 2: Sympathy - Hearts must be soft-shiny dressed'
11. Act III Scene 2: Jinny said, with her characteristic gravity …
Clive Carey (1883–1968)
Three Songs from ‘The Starlight Express’
12. No. 1. The Organ-grinder's Song
13. No. 2. The Dustman's Song
14. No. 3. The Gardener's Song
Edward Elgar - Suite from ‘The Starlight Express’
15. I. To the Children
16. II. Andantino
17. III. The Blue-eyed Fairy
18. IV. The sun has gone
19. V. Andantino
20. VI. Lento
21. VII. Allegro
22. VIII. I'm ev'rywhere
23. IX. Wake up, you little Night Winds
24. X. Dance of the Winds
25. XI. Lento
26. XII. Sun Dance
27. XIII. Andante
28. XIV. Allegretto
29. XV. O, Stars Shine Brightly
30. XVI. Dawn Song
31. XVII. My Old Tunes
32. XVIII. Dandelions, Daffodils
33. XIX. Moderato
34. XX. Hearts must be soft-shiny dressed
35. XXI. Grandioso


Exact Audio Copy V1.3 from 2. September 2016

EAC extraction logfile from 11. August 2019, 14:34

Scottish Chamber Orchestra, Andrew Davis / Elgar - The Starlight Express - CD1

Used drive : ASUS SDRW-08U7M-U Adapter: 1 ID: 0

Read mode : Secure
Utilize accurate stream : Yes
Defeat audio cache : Yes
Make use of C2 pointers : No

Read offset correction : 6
Overread into Lead-In and Lead-Out : No
Fill up missing offset samples with silence : Yes
Delete leading and trailing silent blocks : No
Null samples used in CRC calculations : Yes
Used interface : Native Win32 interface for Win NT & 2000

Used output format : User Defined Encoder
Selected bitrate : 128 kBit/s
Quality : High
Add ID3 tag : No
Command line compressor : C:\Program Files (x86)\Exact Audio Copy\Flac\flac.exe
Additional command line options : -V -8 -T "Date=%year%" -T "Genre=%genre%" %source%


TOC of the extracted CD

Track | Start | Length | Start sector | End sector
––––––––––––––––––––––––––––-
1 | 0:00.00 | 5:56.18 | 0 | 26717
2 | 5:56.18 | 1:37.20 | 26718 | 34012
3 | 7:33.38 | 0:30.45 | 34013 | 36307
4 | 8:04.08 | 0:42.30 | 36308 | 39487
5 | 8:46.38 | 0:32.45 | 39488 | 41932
6 | 9:19.08 | 0:33.35 | 41933 | 44442
7 | 9:52.43 | 1:22.60 | 44443 | 50652
8 | 11:15.28 | 1:48.20 | 50653 | 58772
9 | 13:03.48 | 0:15.65 | 58773 | 59962
10 | 13:19.38 | 0:37.05 | 59963 | 62742
11 | 13:56.43 | 0:42.05 | 62743 | 65897
12 | 14:38.48 | 1:14.00 | 65898 | 71447
13 | 15:52.48 | 0:53.35 | 71448 | 75457
14 | 16:46.08 | 0:38.35 | 75458 | 78342
15 | 17:24.43 | 1:32.40 | 78343 | 85282
16 | 18:57.08 | 1:33.40 | 85283 | 92297
17 | 20:30.48 | 3:22.15 | 92298 | 107462
18 | 23:52.63 | 1:06.25 | 107463 | 112437
19 | 24:59.13 | 1:18.50 | 112438 | 118337
20 | 26:17.63 | 4:38.30 | 118338 | 139217
21 | 30:56.18 | 2:01.70 | 139218 | 148362
22 | 32:58.13 | 1:15.00 | 148363 | 153987
23 | 34:13.13 | 0:21.20 | 153988 | 155582
24 | 34:34.33 | 1:01.65 | 155583 | 160222
25 | 35:36.23 | 0:33.40 | 160223 | 162737
26 | 36:09.63 | 0:19.60 | 162738 | 164222
27 | 36:29.48 | 0:12.55 | 164223 | 165177
28 | 36:42.28 | 0:15.00 | 165178 | 166302
29 | 36:57.28 | 0:48.35 | 166303 | 169937
30 | 37:45.63 | 0:13.60 | 169938 | 170972
31 | 37:59.48 | 0:27.35 | 170973 | 173032
32 | 38:27.08 | 1:29.30 | 173033 | 179737
33 | 39:56.38 | 2:20.45 | 179738 | 190282
34 | 42:17.08 | 0:43.00 | 190283 | 193507
35 | 43:00.08 | 1:06.30 | 193508 | 198487
36 | 44:06.38 | 2:45.15 | 198488 | 210877
37 | 46:51.53 | 1:06.20 | 210878 | 215847
38 | 47:57.73 | 0:52.00 | 215848 | 219747
39 | 48:49.73 | 1:14.50 | 219748 | 225347
40 | 50:04.48 | 1:04.00 | 225348 | 230147
41 | 51:08.48 | 1:18.10 | 230148 | 236007
42 | 52:26.58 | 3:16.35 | 236008 | 250742
43 | 55:43.18 | 0:48.55 | 250743 | 254397
44 | 56:31.73 | 0:18.20 | 254398 | 255767
45 | 56:50.18 | 1:11.57 | 255768 | 261149


Range status and errors

Selected range

Filename C:\temp\Elgar - The Starlight Express - 2012\CD1\Elgar - The Starlight Express - CD1.wav

Peak level 97.6 %
Extraction speed 4.8 X
Range quality 99.9 %
Test CRC 55B90639
Copy CRC 55B90639
Copy OK

No errors occurred


AccurateRip summary

Track 1 accurately ripped (confidence 3) [00AC687B] (AR v2)
Track 2 accurately ripped (confidence 3) [1F32B55D] (AR v2)
Track 3 accurately ripped (confidence 3) [85D13B85] (AR v2)
Track 4 accurately ripped (confidence 3) [81F1D257] (AR v2)
Track 5 accurately ripped (confidence 3) [1C05BBC4] (AR v2)
Track 6 accurately ripped (confidence 3) [315A687D] (AR v2)
Track 7 accurately ripped (confidence 3) [848A66F8] (AR v2)
Track 8 accurately ripped (confidence 3) [BA0FAAB0] (AR v2)
Track 9 accurately ripped (confidence 3) [AFEC7019] (AR v2)
Track 10 accurately ripped (confidence 3) [CA115A56] (AR v2)
Track 11 accurately ripped (confidence 3) [E1A2E358] (AR v2)
Track 12 accurately ripped (confidence 3) [897D73B8] (AR v2)
Track 13 accurately ripped (confidence 3) [A8C1799B] (AR v2)
Track 14 accurately ripped (confidence 3) [BED55B6F] (AR v2)
Track 15 accurately ripped (confidence 3) [9D10AEB7] (AR v2)
Track 16 accurately ripped (confidence 3) [E480903E] (AR v2)
Track 17 accurately ripped (confidence 3) [52E59C81] (AR v2)
Track 18 accurately ripped (confidence 3) [D3B8B410] (AR v2)
Track 19 accurately ripped (confidence 3) [A2631370] (AR v2)
Track 20 accurately ripped (confidence 3) [440615D5] (AR v2)
Track 21 accurately ripped (confidence 3) [6A945EC3] (AR v2)
Track 22 accurately ripped (confidence 3) [A37B0708] (AR v2)
Track 23 accurately ripped (confidence 3) [E68E7B58] (AR v2)
Track 24 accurately ripped (confidence 3) [120E16A3] (AR v2)
Track 25 accurately ripped (confidence 3) [1AC7F0FC] (AR v2)
Track 26 accurately ripped (confidence 3) [5ACBFA32] (AR v2)
Track 27 accurately ripped (confidence 3) [CB905456] (AR v2)
Track 28 accurately ripped (confidence 3) [CB238F91] (AR v2)
Track 29 accurately ripped (confidence 3) [6616B2A2] (AR v2)
Track 30 accurately ripped (confidence 3) [4A992FC9] (AR v2)
Track 31 accurately ripped (confidence 3) [CC168393] (AR v2)
Track 32 accurately ripped (confidence 3) [C80EC8F0] (AR v2)
Track 33 accurately ripped (confidence 3) [7A22642D] (AR v2)
Track 34 accurately ripped (confidence 3) [144E3728] (AR v2)
Track 35 accurately ripped (confidence 3) [78D0F2CC] (AR v2)
Track 36 accurately ripped (confidence 3) [D6389066] (AR v2)
Track 37 accurately ripped (confidence 3) [1B94F181] (AR v2)
Track 38 accurately ripped (confidence 3) [D4AC8D99] (AR v2)
Track 39 accurately ripped (confidence 3) [CB6ED345] (AR v2)
Track 40 accurately ripped (confidence 3) [0C2C632E] (AR v2)
Track 41 accurately ripped (confidence 3) [39538E2F] (AR v2)
Track 42 accurately ripped (confidence 3) [9FF30216] (AR v2)
Track 43 accurately ripped (confidence 3) [33F2BFFD] (AR v2)
Track 44 accurately ripped (confidence 3) [EC795C68] (AR v2)
Track 45 accurately ripped (confidence 3) [A12721B8] (AR v2)

All tracks accurately ripped

End of status report

==== Log checksum FB0664C26B2500FEE8CBF6AACD9E99AC5B387F92F81DB8703E1FF34B251D9D2F ====


Exact Audio Copy V1.3 from 2. September 2016

EAC extraction logfile from 11. August 2019, 15:26

Scottish Chamber Orchestra, Andrew Davis / Elgar - The Starlight Express - CD2

Used drive : ASUS SDRW-08U7M-U Adapter: 1 ID: 0

Read mode : Secure
Utilize accurate stream : Yes
Defeat audio cache : Yes
Make use of C2 pointers : No

Read offset correction : 6
Overread into Lead-In and Lead-Out : No
Fill up missing offset samples with silence : Yes
Delete leading and trailing silent blocks : No
Null samples used in CRC calculations : Yes
Used interface : Native Win32 interface for Win NT & 2000

Used output format : User Defined Encoder
Selected bitrate : 128 kBit/s
Quality : High
Add ID3 tag : No
Command line compressor : C:\Program Files (x86)\Exact Audio Copy\Flac\flac.exe
Additional command line options : -V -8 -T "Date=%year%" -T "Genre=%genre%" %source%


TOC of the extracted CD

Track | Start | Length | Start sector | End sector
––––––––––––––––––––––––––––-
1 | 0:00.00 | 4:14.63 | 0 | 19112
2 | 4:14.63 | 1:15.00 | 19113 | 24737
3 | 5:29.63 | 1:11.18 | 24738 | 30080
4 | 6:41.06 | 1:09.32 | 30081 | 35287
5 | 7:50.38 | 0:34.28 | 35288 | 37865
6 | 8:24.66 | 3:34.05 | 37866 | 53920
7 | 11:58.71 | 7:45.20 | 53921 | 88815
8 | 19:44.16 | 2:37.45 | 88816 | 100635
9 | 22:21.61 | 2:08.53 | 100636 | 110288
10 | 24:30.39 | 2:44.47 | 110289 | 122635
11 | 27:15.11 | 1:41.70 | 122636 | 130280
12 | 28:57.06 | 3:07.12 | 130281 | 144317
13 | 32:04.18 | 1:39.30 | 144318 | 151772
14 | 33:43.48 | 1:22.65 | 151773 | 157987
15 | 35:06.38 | 6:16.25 | 157988 | 186212
16 | 41:22.63 | 1:33.00 | 186213 | 193187
17 | 42:55.63 | 3:16.50 | 193188 | 207937
18 | 46:12.38 | 4:51.00 | 207938 | 229762
19 | 51:03.38 | 2:04.45 | 229763 | 239107
20 | 53:08.08 | 0:29.30 | 239108 | 241312
21 | 53:37.38 | 0:23.55 | 241313 | 243092
22 | 54:01.18 | 0:45.00 | 243093 | 246467
23 | 54:46.18 | 1:20.20 | 246468 | 252487
24 | 56:06.38 | 2:23.00 | 252488 | 263212
25 | 58:29.38 | 0:50.45 | 263213 | 267007
26 | 59:20.08 | 2:34.30 | 267008 | 278587
27 | 61:54.38 | 1:14.70 | 278588 | 284207
28 | 63:09.33 | 1:05.05 | 284208 | 289087
29 | 64:14.38 | 3:20.55 | 289088 | 304142
30 | 67:35.18 | 1:04.00 | 304143 | 308942
31 | 68:39.18 | 4:02.45 | 308943 | 327137
32 | 72:41.63 | 0:55.20 | 327138 | 331282
33 | 73:37.08 | 2:04.22 | 331283 | 340604
34 | 75:41.30 | 2:46.43 | 340605 | 353097
35 | 78:27.73 | 1:37.12 | 353098 | 360384


Range status and errors

Selected range

Filename C:\temp\Elgar - The Starlight Express - 2012\CD2\Elgar - The Starlight Express - CD2.wav

Peak level 97.7 %
Extraction speed 5.2 X
Range quality 100.0 %
Test CRC E9FA46DE
Copy CRC E9FA46DE
Copy OK

No errors occurred


AccurateRip summary

Track 1 accurately ripped (confidence 3) [CA1FCD0C] (AR v2)
Track 2 accurately ripped (confidence 3) [236F17CA] (AR v2)
Track 3 accurately ripped (confidence 3) [6E4CF8B5] (AR v2)
Track 4 accurately ripped (confidence 3) [997DD285] (AR v2)
Track 5 accurately ripped (confidence 3) [1D716100] (AR v2)
Track 6 accurately ripped (confidence 3) [4931AF21] (AR v2)
Track 7 accurately ripped (confidence 3) [AFD5F07F] (AR v2)
Track 8 accurately ripped (confidence 3) [D5FC1867] (AR v2)
Track 9 accurately ripped (confidence 3) [5C7D0B00] (AR v2)
Track 10 accurately ripped (confidence 3) [EFDCBC17] (AR v2)
Track 11 accurately ripped (confidence 3) [36AEB481] (AR v2)
Track 12 accurately ripped (confidence 3) [4FAAD0D1] (AR v2)
Track 13 accurately ripped (confidence 3) [35D887A7] (AR v2)
Track 14 accurately ripped (confidence 3) [B78A91C9] (AR v2)
Track 15 accurately ripped (confidence 3) [C097A511] (AR v2)
Track 16 accurately ripped (confidence 3) [B89320C0] (AR v2)
Track 17 accurately ripped (confidence 3) [63A0EB39] (AR v2)
Track 18 accurately ripped (confidence 3) [52F6F333] (AR v2)
Track 19 accurately ripped (confidence 3) [6367DEAB] (AR v2)
Track 20 accurately ripped (confidence 3) [6806E90A] (AR v2)
Track 21 accurately ripped (confidence 3) [E0223FE5] (AR v2)
Track 22 accurately ripped (confidence 3) [34167D8D] (AR v2)
Track 23 accurately ripped (confidence 3) [4FD3574C] (AR v2)
Track 24 accurately ripped (confidence 3) [B3B36B0F] (AR v2)
Track 25 accurately ripped (confidence 3) [41076DE5] (AR v2)
Track 26 accurately ripped (confidence 3) [B97FEC98] (AR v2)
Track 27 accurately ripped (confidence 3) [5C684631] (AR v2)
Track 28 accurately ripped (confidence 3) [600EC727] (AR v2)
Track 29 accurately ripped (confidence 3) [A527A4E9] (AR v2)
Track 30 accurately ripped (confidence 3) [1059F2C0] (AR v2)
Track 31 accurately ripped (confidence 3) [D0B5AFBF] (AR v2)
Track 32 accurately ripped (confidence 3) [C0CAF65E] (AR v2)
Track 33 accurately ripped (confidence 3) [333CC044] (AR v2)
Track 34 accurately ripped (confidence 3) [26211178] (AR v2)
Track 35 accurately ripped (confidence 3) [33BE0439] (AR v2)

All tracks accurately ripped

End of status report

==== Log checksum 2837231663AA09477AC5CBB149484ADD6368522745540F4D1098E39B3DA38DDC ====

Sir Andrew Davis, Scottish Chamber Orchestra - Elgar: The Starlight Express (2012)

Thanks to the original releaser