Tags
Language
Tags

Andrew Manze, Academy of Ancient Music - Geminiani: Concerti Grossi VII-XII (After Corelli, Op. 5) (2007)

Posted By: ArlegZ
Andrew Manze, Academy of Ancient Music - Geminiani: Concerti Grossi VII-XII (After Corelli, Op. 5) (2007)

Andrew Manze, Academy of Ancient Music - Geminiani: Concerti Grossi VII-XII (After Corelli, Op. 5) (2007)
EAC | FLAC | Image (Cue & Log) ~ 389 Mb | Total time: 71:10 | Scans included
Classical | Label: Harmonia Mundi | # HMX 2907262 | Recorded: 1999

Andrew Manze is not only a superb violinist – check out his Biber sonatas – but also a superb music director. Since taking over the calcified old Academy of Ancient Music and bringing the group with him to Harmonia Mundi, he has produced a stunning series of recordings: a couple of Vivaldi discs, a wonderful set of Handel's Opus 6 concertos, a sublime disc of the Bach concertos. Now they have released Geminiani's Concerto Grossi after Corelli's Op. 5, and it is their best yet.
Geminiani did not simply transcribe Corelli's trio sonatas, he expanded them into works of his own. In effect the works become cheerful Geminiani instead of dour Corelli. The Academy plays brilliantly and, more important, with guts. Gone is the mincing and crimping of the Hogwood years; this year's model digs deep into catgut strings that produce rich and varied sonorities. One feels that the results must be due to Manze's directorial influence, because the Academy never sounded like this before him. Furthermore, Manze demonstrates why he is held to be one of the great masters of the period violin: the Corelli duo sonata for violin and cello ornamented by Geminiani offers plenty of daredevil stunts which he pulls off with daring and audacity.
–James Leonard

Performer:
Academy of Ancient Music
Andrew Manze, director

Track List:
Concerto VII in D minor
01. I. Preludio
02. II. Corrente
03. III. Sarabanda
04. IV. Giga
Concerto VIII in E minor
05. I. Preludio
06. II. Allemanda
07. III. Sarabanda
08. IV. Giga
Concerto IX in A major
09. I. Preludio
10. II. Giga
11. III. Adagio
12. IV. Tempo di Gavotta
Concerto X in F major
13. I. Preludio
14. II. Allemanda
15. III. Sarabanda
16. IV. Gavotta
17. V. Giga
Concerto XI in E major
18. I. Preludio
19. II. Allegro
20. III. Adagio
21. IV. Vivace
22. V. Gavotta
Concerto XII in D minor, 'Follia'
23. Theme & Variations 1-8
24. Variations 9-14
25. Variations 15-25
Cello Sonata in D minor, op.5 No.2
26. I. Andante
27. II. Presto
28. III. Adagio
29. IV. Allegro


Exact Audio Copy V1.2 from 12. August 2016

EAC extraction logfile from 17. September 2019, 17:13

Andrew Manze, The Academy of Ancient Music / Concerti Grossi VII - XII

Used drive : MATSHITADVD-RAM UJ8G6 Adapter: 1 ID: 0

Read mode : Secure
Utilize accurate stream : Yes
Defeat audio cache : Yes
Make use of C2 pointers : No

Read offset correction : 103
Overread into Lead-In and Lead-Out : No
Fill up missing offset samples with silence : Yes
Delete leading and trailing silent blocks : No
Null samples used in CRC calculations : Yes
Used interface : Native Win32 interface for Win NT & 2000

Used output format : User Defined Encoder
Selected bitrate : 768 kBit/s
Quality : High
Add ID3 tag : No
Command line compressor : C:\Program Files (x86)\Exact Audio Copy\Flac\flac.exe
Additional command line options : -6 -V -T "ARTIST=%artist%" -T "TITLE=%title%" -T "ALBUM=%albumtitle%" -T "DATE=%year%" -T "TRACKNUMBER=%tracknr%" -T "GENRE=%genre%" -T "COMMENT=%comment%" -T "BAND=%albuminterpret%" -T "ALBUMARTIST=%albuminterpret%" -T "COMPOSER=%composer%" %haslyrics%–tag-from-file=LYRICS="%lyricsfile%"%haslyrics% -T "DISCNUMBER=%cdnumber%" -T "TOTALDISCS=%totalcds%" -T "TOTALTRACKS=%numtracks%" %hascover%–picture="%coverfile%"%hascover% %source% -o %dest%


TOC of the extracted CD

Track | Start | Length | Start sector | End sector
––––––––––––––––––––––––––––-
1 | 0:00.00 | 2:17.38 | 0 | 10312
2 | 2:17.38 | 2:47.72 | 10313 | 22909
3 | 5:05.35 | 2:52.15 | 22910 | 35824
4 | 7:57.50 | 2:10.33 | 35825 | 45607
5 | 10:08.08 | 3:38.55 | 45608 | 62012
6 | 13:46.63 | 2:11.32 | 62013 | 71869
7 | 15:58.20 | 2:16.48 | 71870 | 82117
8 | 18:14.68 | 2:31.62 | 82118 | 93504
9 | 20:46.55 | 4:13.55 | 93505 | 112534
10 | 25:00.35 | 3:02.63 | 112535 | 126247
11 | 28:03.23 | 0:39.07 | 126248 | 129179
12 | 28:42.30 | 2:35.48 | 129180 | 140852
13 | 31:18.03 | 2:00.27 | 140853 | 149879
14 | 33:18.30 | 2:23.10 | 149880 | 160614
15 | 35:41.40 | 2:31.73 | 160615 | 172012
16 | 38:13.38 | 0:40.00 | 172013 | 175012
17 | 38:53.38 | 2:14.12 | 175013 | 185074
18 | 41:07.50 | 1:50.63 | 185075 | 193387
19 | 42:58.38 | 2:44.00 | 193388 | 205687
20 | 45:42.38 | 0:43.25 | 205688 | 208937
21 | 46:25.63 | 1:44.47 | 208938 | 216784
22 | 48:10.35 | 0:41.13 | 216785 | 219872
23 | 48:51.48 | 3:12.67 | 219873 | 234339
24 | 52:04.40 | 2:39.70 | 234340 | 246334
25 | 54:44.35 | 5:27.50 | 246335 | 270909
26 | 60:12.10 | 2:12.08 | 270910 | 280817
27 | 62:24.18 | 2:38.47 | 280818 | 292714
28 | 65:02.65 | 1:08.38 | 292715 | 297852
29 | 66:11.28 | 5:01.35 | 297853 | 320462


Range status and errors

Selected range

Filename C:\Users\Roy\Music\GEMINIANI - Concerti Grossi VII - XII (1999) [Manze, Harmonia Mundi]\CD (FLAC + CUE)\Francesco Geminiani - Concerti Grossi VII-XII.wav

Peak level 100.0 %
Extraction speed 4.4 X
Range quality 99.9 %
Test CRC C9D2E4F1
Copy CRC C9D2E4F1
Copy OK

No errors occurred


AccurateRip summary

Track 1 accurately ripped (confidence 16) [DD3B05E4] (AR v2)
Track 2 accurately ripped (confidence 17) [6F45D6DD] (AR v2)
Track 3 accurately ripped (confidence 16) [9C0A70B1] (AR v2)
Track 4 accurately ripped (confidence 17) [823DE6D1] (AR v2)
Track 5 accurately ripped (confidence 15) [81EFB2A9] (AR v2)
Track 6 accurately ripped (confidence 17) [D86EEE27] (AR v2)
Track 7 accurately ripped (confidence 16) [7590FAD3] (AR v2)
Track 8 accurately ripped (confidence 16) [F5990668] (AR v2)
Track 9 accurately ripped (confidence 16) [C064C76A] (AR v2)
Track 10 accurately ripped (confidence 17) [7D239FE5] (AR v2)
Track 11 accurately ripped (confidence 16) [960D01E4] (AR v2)
Track 12 accurately ripped (confidence 17) [90FF8BA9] (AR v2)
Track 13 accurately ripped (confidence 16) [ED3DA7F0] (AR v2)
Track 14 accurately ripped (confidence 17) [AA76C612] (AR v2)
Track 15 accurately ripped (confidence 16) [3E50A50F] (AR v2)
Track 16 accurately ripped (confidence 16) [6921C863] (AR v2)
Track 17 accurately ripped (confidence 17) [7DEC563C] (AR v2)
Track 18 accurately ripped (confidence 16) [6BF7BE55] (AR v2)
Track 19 accurately ripped (confidence 17) [B6B220A3] (AR v2)
Track 20 accurately ripped (confidence 16) [14FA5CBF] (AR v2)
Track 21 accurately ripped (confidence 17) [67EC006B] (AR v2)
Track 22 accurately ripped (confidence 17) [6CBFC6F6] (AR v2)
Track 23 accurately ripped (confidence 17) [B759EF24] (AR v2)
Track 24 accurately ripped (confidence 17) [80846C81] (AR v2)
Track 25 accurately ripped (confidence 17) [AC2F72A9] (AR v2)
Track 26 accurately ripped (confidence 16) [A8E2BCFF] (AR v2)
Track 27 accurately ripped (confidence 16) [B2404833] (AR v2)
Track 28 accurately ripped (confidence 16) [8DD86EC0] (AR v2)
Track 29 accurately ripped (confidence 16) [8EA92F6F] (AR v2)

All tracks accurately ripped

End of status report

–– CUETools DB Plugin V2.1.6

[CTDB TOCID: xFiTbEHgC_Qx0oiWunubULn1iBc-] found
Submit result: already submitted
Track | CTDB Status
1 | (46/46) Accurately ripped
2 | (46/46) Accurately ripped
3 | (46/46) Accurately ripped
4 | (46/46) Accurately ripped
5 | (46/46) Accurately ripped
6 | (46/46) Accurately ripped
7 | (46/46) Accurately ripped
8 | (46/46) Accurately ripped
9 | (46/46) Accurately ripped
10 | (46/46) Accurately ripped
11 | (46/46) Accurately ripped
12 | (46/46) Accurately ripped
13 | (46/46) Accurately ripped
14 | (46/46) Accurately ripped
15 | (46/46) Accurately ripped
16 | (46/46) Accurately ripped
17 | (46/46) Accurately ripped
18 | (46/46) Accurately ripped
19 | (46/46) Accurately ripped
20 | (46/46) Accurately ripped
21 | (46/46) Accurately ripped
22 | (46/46) Accurately ripped
23 | (46/46) Accurately ripped
24 | (46/46) Accurately ripped
25 | (46/46) Accurately ripped
26 | (46/46) Accurately ripped
27 | (46/46) Accurately ripped
28 | (46/46) Accurately ripped
29 | (46/46) Accurately ripped


==== Log checksum C188A782A46F8B2085BDE739E605E4B644445563E9E41AD643273B5E0A1C365A ====

Andrew Manze, Academy of Ancient Music - Geminiani: Concerti Grossi VII-XII (After Corelli, Op. 5) (2007)

Thanks to the original releaser