Tags
Language
Tags

Ania Vegry, David Stern, NDR RadioPhilharmonie - Florian Gassmann: Ah, ingrato amor - Opera Arias (2020)

Posted By: ArlegZ
Ania Vegry, David Stern, NDR RadioPhilharmonie - Florian Gassmann: Ah, ingrato amor - Opera Arias (2020)

Ania Vegry, David Stern, NDR RadioPhilharmonie - Florian Gassmann: Ah, ingrato amor - Opera Arias (2020)
EAC | FLAC | Image (Cue & Log) ~ 298 Mb | Total time: 64:59 | Scans included
Classical | Label: CPO | 555 057-2 | Recorded: 2016, 2017

The soprano Ania Vegry, the recipient of many prizes, was nominated by Opernwelt as the Young Artist of the Year in 2009 and has been an ensemble member at the State Opera of Lower Saxony in Hanover since 2007. The Online Musik Magazin certifies that »her soprano voice, most highly fluent in the coloraturas, possesses warmth and substance, expressive power, and flawless intonation« – which makes her the ideal choice for the rich affections of the arias of Florian Leopold Gassmann, an Austrian composer on the cusp between the Baroque and Early Classicism. After two years of study with Giovanni Battista Martini, Gassmann became an organist in Venice. In 1757 he composed his first opera, and through 1762 he composed an opera every year for the Carnival season In Venice. The musical settings heard on this recording include arias belonging to the genre of the opera seria, the Italian-language serious opera of the eighteenth century. Others are exit arias in da capo form and typical of the genre: after the action – designed as a recitative in the music during the course of a singer’s time on stage – has advanced, one of the protagonists expresses his state of heart and mind in an aria before he exits from the stage. The da capo form (A-B-A) underscores the fact that dramaturgically the static unity of the affection to be expressed occupies the foreground. In his later vocal works Gassmann goes much farther in his elaboration of textual nuances, so that the works have the effect of vocal arias for an opera buffa. The text is bursting with emotional excitement, which Gassmann sets in a relaxed tone and with long coloraturas composed with fine art.

Performer:
Ania Vegry, soprano
NDR RadioPhilharmonie
David Stern, direction

Track List:
Florian Leopold Gassmann (1729-1774)
Arias extraits de "Achille in Sciro"
01. Involarmi
02. Ah, ingrato, amor
Aria extrait de "Catone in Utica"
03. Se in campo armato
04. Dovea svenarti allora
05. Per darvi alcun pegno
06. "Nessuno consola un povero core", Air extrait de "La Zingara"
Arias extraits de "L'amore artigiano"
07. Ah, che son fuor di me
08. Che vuoi dir con questi palpiti
09. Aria "Come mi sprezza ancora"
10. "Cogli amanti", Aria extrait de "La serve rivali"
Arias extraits de "L'opera seria"
11. Barbara e non rammenti
12. Delfin che al laccio infido
13. Dove son
14. Pallid' ombra
15. Saprei costante e ardita


Exact Audio Copy V1.3 from 2. September 2016

EAC extraction logfile from 29. February 2020, 9:45

Ania Vegry / Gassmann - Opera Arias

Used drive : hp DVD-RAM GH82N Adapter: 1 ID: 0

Read mode : Secure
Utilize accurate stream : Yes
Defeat audio cache : Yes
Make use of C2 pointers : No

Read offset correction : 667
Overread into Lead-In and Lead-Out : No
Fill up missing offset samples with silence : Yes
Delete leading and trailing silent blocks : No
Null samples used in CRC calculations : Yes
Used interface : Native Win32 interface for Win NT & 2000

Used output format : User Defined Encoder
Selected bitrate : 1024 kBit/s
Quality : High
Add ID3 tag : No
Command line compressor : C:\Program Files (x86)\Exact Audio Copy\FLAC\FLAC.EXE
Additional command line options : -6 -V -T "ARTIST=%artist%" -T "TITLE=%title%" -T "ALBUM=%albumtitle%" -T "DATE=%year%" -T "TRACKNUMBER=%tracknr%" -T "GENRE=%genre%" -T "COMMENT=%comment%" -T "BAND=%albuminterpret%" -T "ALBUMARTIST=%albuminterpret%" -T "COMPOSER=%composer%" %haslyrics%–tag-from-file=LYRICS="%lyricsfile%"%haslyrics% -T "DISCNUMBER=%cdnumber%" -T "TOTALDISCS=%totalcds%" -T "TOTALTRACKS=%numtracks%" %hascover%–picture="%coverfile%"%hascover% %source% -o %dest%


TOC of the extracted CD

Track | Start | Length | Start sector | End sector
––––––––––––––––––––––––––––-
1 | 0:00.00 | 4:40.05 | 0 | 21004
2 | 4:40.05 | 3:26.71 | 21005 | 36525
3 | 8:07.01 | 2:58.71 | 36526 | 49946
4 | 11:05.72 | 5:30.32 | 49947 | 74728
5 | 16:36.29 | 7:39.74 | 74729 | 109227
6 | 24:16.28 | 3:39.27 | 109228 | 125679
7 | 27:55.55 | 2:14.67 | 125680 | 135796
8 | 30:10.47 | 4:53.26 | 135797 | 157797
9 | 35:03.73 | 2:50.04 | 157798 | 170551
10 | 37:54.02 | 3:33.29 | 170552 | 186555
11 | 41:27.31 | 5:29.30 | 186556 | 211260
12 | 46:56.61 | 4:01.56 | 211261 | 229391
13 | 50:58.42 | 4:36.44 | 229392 | 250135
14 | 55:35.11 | 6:01.51 | 250136 | 277261
15 | 61:36.62 | 3:20.64 | 277262 | 292325


Range status and errors

Selected range

Filename C:\rips\Ania Vegry - Gassmann - Opera Arias.wav

Peak level 96.0 %
Extraction speed 3.1 X
Range quality 99.9 %
Test CRC D12C963E
Copy CRC D12C963E
Copy OK

No errors occurred


AccurateRip summary

Track 1 not present in database
Track 2 not present in database
Track 3 not present in database
Track 4 not present in database
Track 5 not present in database
Track 6 not present in database
Track 7 not present in database
Track 8 not present in database
Track 9 not present in database
Track 10 not present in database
Track 11 not present in database
Track 12 not present in database
Track 13 not present in database
Track 14 not present in database
Track 15 not present in database

None of the tracks are present in the AccurateRip database

End of status report

–– CUETools DB Plugin V2.1.6

[CTDB TOCID: 79oiSOadbgBnJmgb0nZ2xvOXlGM-] disk not present in database
Submit result: 79oiSOadbgBnJmgb0nZ2xvOXlGM- has been uploaded


==== Log checksum BA63CC9EA3AE9E1D17248514A584B55D52F21086BAEF266C6695A06F50AF633C ====

Ania Vegry, David Stern, NDR RadioPhilharmonie - Florian Gassmann: Ah, ingrato amor - Opera Arias (2020)

Thanks to the original releaser