Tags
Language
Tags

Anna Prohaska, Il Giardino Armonico - Serpent & Fire (2016)

Posted By: SERTiL
Anna Prohaska, Il Giardino Armonico - Serpent & Fire (2016)

Anna Prohaska, Il Giardino Armonico - Serpent & Fire
XLD Rip | FLAC (tracks)+cue, log, d.booklet | 69:57 min | 329 MB
Label: Alpha Classics - Alpha 250 | Tracks: 22 | Rls.date: 2016
Classical, Opera

The German soprano Anna Prohaska joins Alpha Classics for several recording projects. Her first recital brings together two superb African queens – Dido and Cleopatra – and follows them all over Europe during the first century of opera, from the 1640s to 1740. A firework display of arias, virtuosic and tragic by turns, written by the leading personalities of Baroque music (Cavalli, Handel, Purcell, Hasse) and composers still awaiting rediscovery suchas Sartorio, Graupner and the Venetian Castrovillari. For this programme built like a tragedy around the queens of Egypt and Carthage, whom she interprets with the passion and fervour that have made her reputation, Anna Prohaska is accompanied by one of today’s finest Baroque ensembles, Il Giardino Armonico; under the inspired guidance of their director Giovanni Antonini (who is also a dazzling recorder soloist in some of the arias), they keep us on the edge of our seats from start to finish.

A top star in Germany, Anna Prohaska also sings on the world’s leading operatic stages, from La Scala to Covent Garden by way of Aix-en-Provence and Salzburg.

Another stunner from soprano Anna Prohaska. Following her wonderful disc of war-related music, she now turns her attention to two tragic heroines, Dido and Cleopatra. Both have inspired great music across the centuries, but Prohaska resists the attention to go as far as Berlioz, and frames this baroque collection with the start and finish of Purcell's Dido and Aeneas. There are well-known Cleopatra arias a devastating, piercing Se pietà di me non senti from Handel's Giulio Cesare and very little-known ones by Castrovillari, Sartorio, Cavalli and Graupner (a bizarre bilingual scene). It's all beautifully planned and paced, with riveting instrumental interludes from Il Giardino Armonico, including Matthew Locke's astonishingly modern Curtain Tune. –Nicholas Kenyon - The Observer

TRACKLIST
1. Dido And Aeneas: Overture 1:47
2. Dido And Aeneas: Ah! Belinda, I Am Press'd With Torment 4:42
3. Dido, Königin Von Karthago: Holdestes Lispeln Der Spielenden Fluthen 2:05
4. Giulio Cesare In Egitto: Non Voglio Amar 2:31
5. The Tempest: The Second Music - Lilk 0:50
6. The Tempest: The Second Music - Curtain Tune 5:08
7. La Cleopatra: A Dio Regni, A Dio Scettri 6:08
8. Giulio Cesare In Egitto: Quando Voglio 2:32
9. The Tempest: The First Music - Gallliard 1:34
10. The Fairy Queen: Chaconne - Dance For The Chinese Man And Woman 2:39
11. Dido, Königin Von Karthago: Der Himmel … 1:22
12. Dido, Königin Von Karthago: Infido Cupido 2:12
13. Dido, Königin Von Karthago: Agitato Da Tempeste 2:31
14. Giulio Cesare In Egitto, HWV.17: Che Sento? O Dio! 1:07
15. Giulio Cesare In Egitto, HWV.17: Se Pieta Di Me Non Senti 7:19
16. Didone Abbandonata: Gia Si Desta La Tempesta 4:00
17. Sonate Concertate In Stil Moderno, Libro Secondo: Sonata Decimaquinta A Quattro 4:51
18. Didone: Re De' Getuli Altero 3:19
19. Marc'Antonio E Cleoptatra: Morte Col Fiero Aspetto 4:04
20. Passacaille Del Seig.R Louigi 2:50
21. Dido And Aeneas: Oft She Visits This Lone Mountain 1:49
22. Dido And Aeneas: Thy Hand Belinda … When I Am Laid In Earth 4:37

X Lossless Decoder version 20141129 (148.1)

XLD extraction logfile from 2017-01-31 22:11:34 +0100

Anna Prohaska, Il Giardino Armonico / Serpent & Fire

Used drive : HL-DT-ST DVDRW GA11NR (revision KR06)
Media type : Pressed CD

Ripper mode : XLD Secure Ripper
Disable audio cache : OK for the drive with a cache less than 1375KiB
Make use of C2 pointers : NO
Read offset correction : 667
Max retry count : 20
Gap status : Analyzed, Appended

TOC of the extracted CD
Track | Start | Length | Start sector | End sector
––––––––––––––––––––––––––––-
1 | 00:00:00 | 01:47:62 | 0 | 8086
2 | 01:47:62 | 04:42:67 | 8087 | 29303
3 | 06:30:54 | 02:05:15 | 29304 | 38693
4 | 08:35:69 | 02:31:51 | 38694 | 50069
5 | 11:07:45 | 00:50:59 | 50070 | 53878
6 | 11:58:29 | 05:08:38 | 53879 | 77016
7 | 17:06:67 | 06:08:45 | 77017 | 104661
8 | 23:15:37 | 02:32:41 | 104662 | 116102
9 | 25:48:03 | 01:34:55 | 116103 | 123207
10 | 27:22:58 | 02:39:49 | 123208 | 135181
11 | 30:02:32 | 01:22:34 | 135182 | 141365
12 | 31:24:66 | 02:12:52 | 141366 | 151317
13 | 33:37:43 | 02:31:43 | 151318 | 162685
14 | 36:09:11 | 01:07:37 | 162686 | 167747
15 | 37:16:48 | 07:19:27 | 167748 | 200699
16 | 44:36:00 | 04:00:09 | 200700 | 218708
17 | 48:36:09 | 04:51:73 | 218709 | 240606
18 | 53:28:07 | 03:19:12 | 240607 | 255543
19 | 56:47:19 | 04:04:47 | 255544 | 273890
20 | 60:51:66 | 02:50:04 | 273891 | 286644
21 | 63:41:70 | 01:49:32 | 286645 | 294851
22 | 65:31:27 | 04:37:43 | 294852 | 315669

List of alternate offset correction values
# | Absolute | Relative | Confidence
–––––––––––––––––––––
1 | 103 | -564 | 4

AccurateRip Summary (DiscID: 003494b6-03534ad7-3d107016)
Track 01 : OK (v2, confidence 4/4, with different offset)
Track 02 : OK (v2, confidence 4/4, with different offset)
Track 03 : OK (v2, confidence 4/4, with different offset)
Track 04 : OK (v2, confidence 4/4, with different offset)
Track 05 : OK (v2, confidence 4/4, with different offset)
Track 06 : OK (v2, confidence 4/4, with different offset)
Track 07 : OK (v2, confidence 4/4, with different offset)
Track 08 : OK (v2, confidence 4/4, with different offset)
Track 09 : OK (v2, confidence 4/4, with different offset)
Track 10 : OK (v2, confidence 4/4, with different offset)
Track 11 : OK (v2, confidence 4/4, with different offset)
Track 12 : OK (v2, confidence 4/4, with different offset)
Track 13 : OK (v2, confidence 4/4, with different offset)
Track 14 : OK (v2, confidence 4/4, with different offset)
Track 15 : OK (v2, confidence 4/4, with different offset)
Track 16 : OK (v2, confidence 4/4, with different offset)
Track 17 : OK (v2, confidence 4/4, with different offset)
Track 18 : OK (v2, confidence 4/4, with different offset)
Track 19 : OK (v2, confidence 4/4, with different offset)
Track 20 : OK (v2, confidence 4/4, with different offset)
Track 21 : OK (v2, confidence 4/4, with different offset)
Track 22 : OK (v2, confidence 4/4, with different offset)
->All tracks accurately ripped.

All Tracks
Album gain : 0.50 dB
Peak : 0.898682
Statistics
Read error : 0
Jitter error (maybe fixed) : 0
Retry sector count : 0
Damaged sector count : 0

Track 01
Filename : /Users/dehors/Music/Anna Prohaska, Il Giardino Armonico - Serpent & Fire (2016) [FLAC]/01 - Purcell - Dido and Aeneas - Overture.flac
Pre-gap length : 00:02:00

Track gain : 1.84 dB
Peak : 0.609344
CRC32 hash (test run) : 934861FF
CRC32 hash : 934861FF
CRC32 hash (skip zero) : C92DEB6A
AccurateRip v1 signature : 0C5C55C0
AccurateRip v2 signature : 7EC23AAB (211893F1 w/correction)
->Accurately ripped with different offset (v2, confidence 4/4, offset -564)
Statistics
Read error : 0
Jitter error (maybe fixed) : 0
Retry sector count : 0
Damaged sector count : 0

Track 02
Filename : /Users/dehors/Music/Anna Prohaska, Il Giardino Armonico - Serpent & Fire (2016) [FLAC]/02 - Purcell - Dido and Aeneas - Aria 'Ah! Belinda, I am press'd with torment'.flac

Track gain : 1.77 dB
Peak : 0.860657
CRC32 hash (test run) : 5C436592
CRC32 hash : 5C436592
CRC32 hash (skip zero) : 4835BE48
AccurateRip v1 signature : 49D28D8D
AccurateRip v2 signature : D83E5144 (010E92C1 w/correction)
->Accurately ripped with different offset (v2, confidence 4/4, offset -564)
Statistics
Read error : 0
Jitter error (maybe fixed) : 0
Retry sector count : 0
Damaged sector count : 0

Track 03
Filename : /Users/dehors/Music/Anna Prohaska, Il Giardino Armonico - Serpent & Fire (2016) [FLAC]/03 - Graupner - Dido, Konigin von Karthago - Aria 'Holdestes Lispeln der spielenden Fluthen'.flac

Track gain : 0.97 dB
Peak : 0.767242
CRC32 hash (test run) : AB725C76
CRC32 hash : AB725C76
CRC32 hash (skip zero) : 3C6BBE83
AccurateRip v1 signature : 62F0D9E0
AccurateRip v2 signature : D68E5F3E (0CD3095F w/correction)
->Accurately ripped with different offset (v2, confidence 4/4, offset -564)
Statistics
Read error : 0
Jitter error (maybe fixed) : 0
Retry sector count : 0
Damaged sector count : 0

Track 04
Filename : /Users/dehors/Music/Anna Prohaska, Il Giardino Armonico - Serpent & Fire (2016) [FLAC]/04 - Sartorio - Giulio Cesare in Egitto - Aria 'Non voglio amar'.flac

Track gain : -0.81 dB
Peak : 0.844574
CRC32 hash (test run) : 379F5B3C
CRC32 hash : 379F5B3C
CRC32 hash (skip zero) : A3552FB1
AccurateRip v1 signature : 8A91F05D
AccurateRip v2 signature : 7EB94392 (A8E9BE53 w/correction)
->Accurately ripped with different offset (v2, confidence 4/4, offset -564)
Statistics
Read error : 0
Jitter error (maybe fixed) : 0
Retry sector count : 0
Damaged sector count : 0

Track 05
Filename : /Users/dehors/Music/Anna Prohaska, Il Giardino Armonico - Serpent & Fire (2016) [FLAC]/05 - Locke - The Tempest - The second musick, Lilk.flac

Track gain : 2.53 dB
Peak : 0.667297
CRC32 hash (test run) : FD94E266
CRC32 hash : FD94E266
CRC32 hash (skip zero) : B094EB64
AccurateRip v1 signature : D70EA366
AccurateRip v2 signature : 230FAE6D (F3136A9B w/correction)
->Accurately ripped with different offset (v2, confidence 4/4, offset -564)
Statistics
Read error : 0
Jitter error (maybe fixed) : 0
Retry sector count : 0
Damaged sector count : 0

Track 06
Filename : /Users/dehors/Music/Anna Prohaska, Il Giardino Armonico - Serpent & Fire (2016) [FLAC]/06 - Locke - The Tempest - The second musick, Curtain Tune.flac

Track gain : 3.11 dB
Peak : 0.652008
CRC32 hash (test run) : E8A8D3DB
CRC32 hash : E8A8D3DB
CRC32 hash (skip zero) : 9B1B1930
AccurateRip v1 signature : 6143A81A
AccurateRip v2 signature : 86F2C785 (1FBF5B5E w/correction)
->Accurately ripped with different offset (v2, confidence 4/4, offset -564)
Statistics
Read error : 0
Jitter error (maybe fixed) : 0
Retry sector count : 0
Damaged sector count : 0

Track 07
Filename : /Users/dehors/Music/Anna Prohaska, Il Giardino Armonico - Serpent & Fire (2016) [FLAC]/07 - Da Castrovillari - La Cleopatra - Aria 'A Dio regni, A Dio Scettri'.flac

Track gain : 4.56 dB
Peak : 0.627991
CRC32 hash (test run) : C46175AC
CRC32 hash : C46175AC
CRC32 hash (skip zero) : 0461B0FC
AccurateRip v1 signature : A6AE9F62
AccurateRip v2 signature : 8FA75EB5 (44B6FE76 w/correction)
->Accurately ripped with different offset (v2, confidence 4/4, offset -564)
Statistics
Read error : 0
Jitter error (maybe fixed) : 0
Retry sector count : 0
Damaged sector count : 0

Track 08
Filename : /Users/dehors/Music/Anna Prohaska, Il Giardino Armonico - Serpent & Fire (2016) [FLAC]/08 - Sartorio - Giulio Cesare in Egitto - Aria 'Quando voglio'.flac

Track gain : -0.28 dB
Peak : 0.844971
CRC32 hash (test run) : 6D7BDF6F
CRC32 hash : 6D7BDF6F
CRC32 hash (skip zero) : 2F6838E1
AccurateRip v1 signature : 94664C5E
AccurateRip v2 signature : B549B8B6 (2A229FCA w/correction)
->Accurately ripped with different offset (v2, confidence 4/4, offset -564)
Statistics
Read error : 0
Jitter error (maybe fixed) : 0
Retry sector count : 0
Damaged sector count : 0

Track 09
Filename : /Users/dehors/Music/Anna Prohaska, Il Giardino Armonico - Serpent & Fire (2016) [FLAC]/09 - Locke - The Tempest - The first musick, Galliard.flac

Track gain : 3.77 dB
Peak : 0.430359
CRC32 hash (test run) : EE0E8ED5
CRC32 hash : EE0E8ED5
CRC32 hash (skip zero) : 64787173
AccurateRip v1 signature : 2499236C
AccurateRip v2 signature : 8B3FC60D (C72B14DE w/correction)
->Accurately ripped with different offset (v2, confidence 4/4, offset -564)
Statistics
Read error : 0
Jitter error (maybe fixed) : 0
Retry sector count : 0
Damaged sector count : 0

Track 10
Filename : /Users/dehors/Music/Anna Prohaska, Il Giardino Armonico - Serpent & Fire (2016) [FLAC]/10 - Purcell - The Fairy Queen - Chaconne, Dance for the Chinese man and woman.flac

Track gain : 2.64 dB
Peak : 0.546143
CRC32 hash (test run) : 5EDC22FC
CRC32 hash : 5EDC22FC
CRC32 hash (skip zero) : E2346077
AccurateRip v1 signature : 505B4018
AccurateRip v2 signature : 2453CE22 (C21E596B w/correction)
->Accurately ripped with different offset (v2, confidence 4/4, offset -564)
Statistics
Read error : 0
Jitter error (maybe fixed) : 0
Retry sector count : 0
Damaged sector count : 0

Track 11
Filename : /Users/dehors/Music/Anna Prohaska, Il Giardino Armonico - Serpent & Fire (2016) [FLAC]/11 - Graupner - Dido, Konigin von Karthago - Recitativo 'Der Himmel…'.flac

Track gain : -3.18 dB
Peak : 0.896606
CRC32 hash (test run) : AB174196
CRC32 hash : AB174196
CRC32 hash (skip zero) : F05C1430
AccurateRip v1 signature : A8D0AD23
AccurateRip v2 signature : BC24B9EA (A6AA1624 w/correction)
->Accurately ripped with different offset (v2, confidence 4/4, offset -564)
Statistics
Read error : 0
Jitter error (maybe fixed) : 0
Retry sector count : 0
Damaged sector count : 0

Track 12
Filename : /Users/dehors/Music/Anna Prohaska, Il Giardino Armonico - Serpent & Fire (2016) [FLAC]/12 - Graupner - Dido, Konigin von Karthago - Aria 'Infido Cupido'.flac

Track gain : -0.58 dB
Peak : 0.799164
CRC32 hash (test run) : 3C237471
CRC32 hash : 3C237471
CRC32 hash (skip zero) : 9CF75FE1
AccurateRip v1 signature : 06A04512
AccurateRip v2 signature : 9951147F (1DBA7FDF w/correction)
->Accurately ripped with different offset (v2, confidence 4/4, offset -564)
Statistics
Read error : 0
Jitter error (maybe fixed) : 0
Retry sector count : 0
Damaged sector count : 0

Track 13
Filename : /Users/dehors/Music/Anna Prohaska, Il Giardino Armonico - Serpent & Fire (2016) [FLAC]/13 - Graupner - Dido, Konigin von Karthago - Aria 'Agitato da Tempeste'.flac

Track gain : -3.19 dB
Peak : 0.898651
CRC32 hash (test run) : B86131A3
CRC32 hash : B86131A3
CRC32 hash (skip zero) : B6545E81
AccurateRip v1 signature : 65E5BABE
AccurateRip v2 signature : 4B30BF2F (113131ED w/correction)
->Accurately ripped with different offset (v2, confidence 4/4, offset -564)
Statistics
Read error : 0
Jitter error (maybe fixed) : 0
Retry sector count : 0
Damaged sector count : 0

Track 14
Filename : /Users/dehors/Music/Anna Prohaska, Il Giardino Armonico - Serpent & Fire (2016) [FLAC]/14 - Handel - Giulio Cesare in Egitto - Recitativo 'Che sento? O Dio!'.flac

Track gain : -1.03 dB
Peak : 0.856934
CRC32 hash (test run) : 476695FF
CRC32 hash : 476695FF
CRC32 hash (skip zero) : 9CE6586E
AccurateRip v1 signature : F6C4A098
AccurateRip v2 signature : 9ACE58BB (A331451C w/correction)
->Accurately ripped with different offset (v2, confidence 4/4, offset -564)
Statistics
Read error : 0
Jitter error (maybe fixed) : 0
Retry sector count : 0
Damaged sector count : 0

Track 15
Filename : /Users/dehors/Music/Anna Prohaska, Il Giardino Armonico - Serpent & Fire (2016) [FLAC]/15 - Handel - Giulio Cesare in Egitto - Aria 'Se pieta di me non senti'.flac

Track gain : -0.72 dB
Peak : 0.898682
CRC32 hash (test run) : 9442B956
CRC32 hash : 9442B956
CRC32 hash (skip zero) : B7E2C1FC
AccurateRip v1 signature : D503909B
AccurateRip v2 signature : 1F3C4554 (B7148238 w/correction)
->Accurately ripped with different offset (v2, confidence 4/4, offset -564)
Statistics
Read error : 0
Jitter error (maybe fixed) : 0
Retry sector count : 0
Damaged sector count : 0

Track 16
Filename : /Users/dehors/Music/Anna Prohaska, Il Giardino Armonico - Serpent & Fire (2016) [FLAC]/16 - Hasse - Didone Abbandonata - Aria 'Gia su desta la tempesta'.flac

Track gain : -2.51 dB
Peak : 0.894623
CRC32 hash (test run) : BA6D8E2A
CRC32 hash : BA6D8E2A
CRC32 hash (skip zero) : C7D19CB5
AccurateRip v1 signature : 3A0DCCC1
AccurateRip v2 signature : F56944B2 (94998507 w/correction)
->Accurately ripped with different offset (v2, confidence 4/4, offset -564)
Statistics
Read error : 0
Jitter error (maybe fixed) : 0
Retry sector count : 0
Damaged sector count : 0

Track 17
Filename : /Users/dehors/Music/Anna Prohaska, Il Giardino Armonico - Serpent & Fire (2016) [FLAC]/17 - Castello - Sonate Concertante in Stil Moderno - Sonatea Decimaquinta a Quattro.flac

Track gain : 6.35 dB
Peak : 0.542542
CRC32 hash (test run) : D4A6F153
CRC32 hash : D4A6F153
CRC32 hash (skip zero) : BAD0A3DD
AccurateRip v1 signature : B73B378B
AccurateRip v2 signature : A4E6607A (7E1E9020 w/correction)
->Accurately ripped with different offset (v2, confidence 4/4, offset -564)
Statistics
Read error : 0
Jitter error (maybe fixed) : 0
Retry sector count : 0
Damaged sector count : 0

Track 18
Filename : /Users/dehors/Music/Anna Prohaska, Il Giardino Armonico - Serpent & Fire (2016) [FLAC]/18 - Cavalli - La Didone - Recitative & Aria 'Re de' getuli altero'.flac

Track gain : 2.97 dB
Peak : 0.684509
CRC32 hash (test run) : C1070B4C
CRC32 hash : C1070B4C
CRC32 hash (skip zero) : E9B22536
AccurateRip v1 signature : 2FED99C1
AccurateRip v2 signature : 2E8D9F0B (CD4ADFCC w/correction)
->Accurately ripped with different offset (v2, confidence 4/4, offset -564)
Statistics
Read error : 0
Jitter error (maybe fixed) : 0
Retry sector count : 0
Damaged sector count : 0

Track 19
Filename : /Users/dehors/Music/Anna Prohaska, Il Giardino Armonico - Serpent & Fire (2016) [FLAC]/19 - Hasse - Marc'Antonio e Cleopatra - Aria 'Morte col fiero aspetto'.flac

Track gain : -2.39 dB
Peak : 0.898560
CRC32 hash (test run) : 6175FCD3
CRC32 hash : 6175FCD3
CRC32 hash (skip zero) : C0FD40B3
AccurateRip v1 signature : 9FB61288
AccurateRip v2 signature : 6D31A144 (66FBC706 w/correction)
->Accurately ripped with different offset (v2, confidence 4/4, offset -564)
Statistics
Read error : 0
Jitter error (maybe fixed) : 0
Retry sector count : 0
Damaged sector count : 0

Track 20
Filename : /Users/dehors/Music/Anna Prohaska, Il Giardino Armonico - Serpent & Fire (2016) [FLAC]/20 - Rossi - Passacaille del Seig.r. Louigi.flac

Track gain : 11.46 dB
Peak : 0.190308
CRC32 hash (test run) : 695B4EE5
CRC32 hash : 695B4EE5
CRC32 hash (skip zero) : DAE7E5A9
AccurateRip v1 signature : 7FB9A754
AccurateRip v2 signature : 004D70A0 (149B7535 w/correction)
->Accurately ripped with different offset (v2, confidence 4/4, offset -564)
Statistics
Read error : 0
Jitter error (maybe fixed) : 0
Retry sector count : 0
Damaged sector count : 0

Track 21
Filename : /Users/dehors/Music/Anna Prohaska, Il Giardino Armonico - Serpent & Fire (2016) [FLAC]/21 - Purcell - Dido and Aeneas - Aria 'Oft she visits this lone mountain'.flac

Track gain : 0.04 dB
Peak : 0.818939
CRC32 hash (test run) : 2C577BAF
CRC32 hash : 2C577BAF
CRC32 hash (skip zero) : A7FC4616
AccurateRip v1 signature : 9575D08C
AccurateRip v2 signature : 1A56C350 (EFF3257C w/correction)
->Accurately ripped with different offset (v2, confidence 4/4, offset -564)
Statistics
Read error : 0
Jitter error (maybe fixed) : 0
Retry sector count : 0
Damaged sector count : 0

Track 22
Filename : /Users/dehors/Music/Anna Prohaska, Il Giardino Armonico - Serpent & Fire (2016) [FLAC]/22 - Purcell - Dido and Aeneas - 'Thy hand, Belinda… When I am laid in earth' (Dido's Lament).flac

Track gain : 1.01 dB
Peak : 0.898621
CRC32 hash (test run) : 39A953F5
CRC32 hash : 39A953F5
CRC32 hash (skip zero) : B77EF434
AccurateRip v1 signature : C07DEF89
AccurateRip v2 signature : 3CC2358C (574520D9 w/correction)
->Accurately ripped with different offset (v2, confidence 4/4, offset -564)
Statistics
Read error : 0
Jitter error (maybe fixed) : 0
Retry sector count : 0
Damaged sector count : 0

No errors occurred

End of status report

––-BEGIN XLD SIGNATURE––-
qp75IkJdznHh9an5FiHi68h0khr_DuzoDiFkS89P3vxpnu9wl6bMwIwqkM0OMQgHlHffHbkuoBQQoUab0uX_IDxU_dIk_2LcbIT8_6y
––-END XLD SIGNATURE––-


Anna Prohaska, Il Giardino Armonico - Serpent & Fire (2016)


Thanks to the Original customer.