Subcategories
Tags
Language
Tags

Anna Caterina Antonacci - Era la notte

Posted By: basa005
Anna Caterina Antonacci - Era la notte

Anna Caterina Antonacci - Era la notte
EAC RIP | APE + CUE + LOG | NO COVER | 232 Mb
Classical | Naive V5050


Anna Caterina Antonacci: performer
Frederico Maria Sardelli: conductor
Modo Antiquo : orchestra
Claudio Monteverdi, Barbara Strozzi, Pietro Antonio Giramo: composer

Tracklist:
1. Monteverdi: Lamento d'Arianna
2. Strozzi: Lamento: Lagrime mie
3. Giramo: Lamento della pazza
4. Monteverdi: Il Combattimento di Tancredi e Clorinda


Exact Audio Copy V0.99 prebeta 4 from 23. January 2008

Estrazione File Di Log EAC Del 30. Aprile 2009, 9:02

Anna Caterina Antonacci / Era la notte

Unità Predefinita: ATAPI DVD A DH16A1L Adapter: 1 ID: 0

Modalità Di Lettura: : Burst

Correzione Offset Di Lettura: : 6
Sovrascrivi Anche Nel Lead-In E Lead-Out : No
Riempi Sample Offset Mancanti Con Silenzio : Sì
Rimuovi Blocchi Di Silenzio Ad Inizio E Fine Traccia : No
Usa I Sample Nulli Nel Calcolo CRC : Sì
Interfaccia Usata : Interfaccia Nativa Win32 Per Windows NT & 2000

Formato Di Destinazione Scelto: : Routine Interne WAV
Formato Sample : 44.100 Hz; 16 Bit; Stereo


TOC Del CD Estratto

Traccia | Inizio | Lunghezza | Inizio Settore | Fine Settore
––––––––––––––––––––––––––––––––
1 | 0:00.00 | 9:17.01 | 0 | 41775
2 | 9:17.01 | 7:28.52 | 41776 | 75427
3 | 16:45.53 | 9:26.24 | 75428 | 117901
4 | 26:12.02 | 18:17.52 | 117902 | 200228


Stato Intervallo Ed Errori

Intervallo Selezionato

Nome File C:\Documents and Settings\Documenti\avaxhome\Anna Caterina Antonacci - Era la notte.wav

Problema Di Timing 0:00:17

Livello Di Picco 73.4 %
Copia CRC 96709E85
Copia Completata Con Successo

Non Sono Stati Riscontrati Errori


Sommario Accuraterip

Traccia 1 Estratta Accuratamente (Confidence 3) [283C62E4]
Traccia 2 Estratta Accuratamente (Confidence 3) [EB93A43C]
Traccia 3 Estratta Accuratamente (Confidence 3) [E90E56E9]
Traccia 4 Estratta Accuratamente (Confidence 3) [643FFD15]

Tutte Le Tracce Sono State Estratte Accuratamente

Fine Del Resoconto Di Stato


download:
part 1
part 2