Tags
Language
Tags

Anne-Catherine Bucher, Le Concert Lorrain - Henry Desmarest: Manuscrit des Ursulines de la Nouvelle-Orléans (2002)

Posted By: ArlegZ
Anne-Catherine Bucher, Le Concert Lorrain - Henry Desmarest: Manuscrit des Ursulines de la Nouvelle-Orléans (2002)

Anne-Catherine Bucher, Le Concert Lorrain - Henry Desmarest: Manuscrit des Ursulines de la Nouvelle-Orléans (2002)
EAC | FLAC | Image (Cue & Log) ~ 302 Mb | Total time: 57:05 | Scans included
Classical | Label: K617 | # K617134 | Recorded: 2001

Gloire au Centre de musique baroque de Versailles qui nous a fait redécouvrir Henry Desmarest, l'un des plus étonnants compositeurs du règne de Louis XIV. À vingt ans à peine, il osa braver Lully sur son propre terrain, en montant un opéra et un divertissement à la cour du Roi-Soleil. Plus tard, avec son aîné Marc-Antoine Charpentier, il fut l'un des principaux acteurs du renouveau d'un opéra français en manque de vrais succès depuis la mort de Quinault et Lully. On croyait indûment tout savoir de ce maître de musique. C'était compter sans le talent de défricheur du label français K.617, qui a trouvé en Nouvelle-Orléans les traces d'un baroque français "exporté", estampillé du nom de Desmarest, entre autres. C'est le jeune ensemble Le Concert lorrain qui s'est plongé dans l'exhumation de ce document, dans le cadre de la restauration musicale qui lui a été confiée, avant de l'enregistrer. Une découverte de taille que ne manqueront pas les discophiles les plus curieux de sonorités et d'alliages inédits.
–Pierre Guillaume

Performer:
Le Concert Lorrain
Anne-Catherine Bucher, direction

Track List:
Joseph-François Salomon (1649-1732)
01. L'orgueil
Jean-Baptiste Lully (1632-1687)
02. Sa puissance
André Campra (1660-1744)
03. Descente du St. Esprit
Marin Marais (1656-1728)
04. La solitude
Anonymous
05. Grand Dieu cède à ta puissance
Jean-Baptiste Lully (1632-1687)
06. Chaconne le monument
07. Dans les cieux est un Dieu qui m'aime
Henry Desmarest (1661-1741)
Les louanges de Dieu
08. Grandeur de Dieu
09. Son Eternité, Son Immensité
10. Sa Puissance, Sa Bonté
11. Sa Providence, Son Immutabilité
12. Sa Justice
13. Chaconne
14. Récit
15. Sa Gloire
16. Dieu Redoutable
17. Prière
François Couperin (1668-1733)
18. Soeur Monique
Jean-Baptiste Lully
19. La loi
20. Fidélité à la vocation
21. Prière dans la tentation
22. Dans les cieux est un Dieu qui m'aime
François Couperin
23. La ténébreuse
Michel Pignolet de Montéclair (1667-1737)
24. Nuit du pêché
Henry Desmarest
25. Récompense de la vertu
François Couperin
26. Les bergeries


Exact Audio Copy V1.6 from 23. October 2020

EAC extraction logfile from 13. May 2021, 9:16

Various Artists / Manuscrit des Ursulines de la Nouvelles-Orléans

Used drive : HL-DT-STDVDRAM GH24NSD5 Adapter: 1 ID: 0

Read mode : Secure
Utilize accurate stream : Yes
Defeat audio cache : Yes
Make use of C2 pointers : No

Read offset correction : 6
Overread into Lead-In and Lead-Out : No
Fill up missing offset samples with silence : Yes
Delete leading and trailing silent blocks : No
Null samples used in CRC calculations : Yes
Used interface : Native Win32 interface for Win NT & 2000

Used output format : User Defined Encoder
Selected bitrate : 1024 kBit/s
Quality : High
Add ID3 tag : No
Command line compressor : C:\Program Files (x86)\Exact Audio Copy\FLAC\FLAC.EXE
Additional command line options : -6 -V -T "ARTIST=%artist%" -T "TITLE=%title%" -T "ALBUM=%albumtitle%" -T "DATE=%year%" -T "TRACKNUMBER=%tracknr%" -T "GENRE=%genre%" -T "COMMENT=%comment%" -T "BAND=%albuminterpret%" -T "ALBUMARTIST=%albuminterpret%" -T "COMPOSER=%composer%" %haslyrics%–tag-from-file=LYRICS="%lyricsfile%"%haslyrics% -T "DISCNUMBER=%cdnumber%" -T "TOTALDISCS=%totalcds%" -T "TOTALTRACKS=%numtracks%" %hascover%–picture="%coverfile%"%hascover% %source% -o %dest%


TOC of the extracted CD

Track | Start | Length | Start sector | End sector
––––––––––––––––––––––––––––-
1 | 0:00.00 | 1:24.31 | 0 | 6330
2 | 1:24.31 | 3:28.19 | 6331 | 21949
3 | 4:52.50 | 1:53.18 | 21950 | 30442
4 | 6:45.68 | 2:16.06 | 30443 | 40648
5 | 9:01.74 | 1:14.60 | 40649 | 46258
6 | 10:16.59 | 4:19.26 | 46259 | 65709
7 | 14:36.10 | 2:21.27 | 65710 | 76311
8 | 16:57.37 | 1:01.34 | 76312 | 80920
9 | 17:58.71 | 1:15.24 | 80921 | 86569
10 | 19:14.20 | 0:58.65 | 86570 | 90984
11 | 20:13.10 | 2:57.46 | 90985 | 104305
12 | 23:10.56 | 1:58.30 | 104306 | 113185
13 | 25:09.11 | 3:10.15 | 113186 | 127450
14 | 28:19.26 | 1:18.35 | 127451 | 133335
15 | 29:37.61 | 2:01.55 | 133336 | 142465
16 | 31:39.41 | 0:48.74 | 142466 | 146139
17 | 32:28.40 | 2:27.74 | 146140 | 157238
18 | 34:56.39 | 2:49.68 | 157239 | 169981
19 | 37:46.32 | 2:22.49 | 169982 | 180680
20 | 40:09.06 | 1:28.58 | 180681 | 187338
21 | 41:37.64 | 2:01.66 | 187339 | 196479
22 | 43:39.55 | 1:17.16 | 196480 | 202270
23 | 44:56.71 | 4:19.34 | 202271 | 221729
24 | 49:16.30 | 0:54.71 | 221730 | 225850
25 | 50:11.26 | 2:28.18 | 225851 | 236968
26 | 52:39.44 | 4:23.69 | 236969 | 256762


Range status and errors

Selected range

Filename I:\Rips\Various - Manuscrit des Ursulines de la Nouvelle Orléans - Bucher\Various Artists - Manuscrit des Ursulines de la Nouvelles-Orléans.wav

Peak level 99.3 %
Extraction speed 3.0 X
Range quality 100.0 %
Test CRC 1BA6BACB
Copy CRC 1BA6BACB
Copy OK

No errors occurred


AccurateRip summary

Track 1 accurately ripped (confidence 2) [BB5A75B9] (AR v1)
Track 2 accurately ripped (confidence 2) [D813460D] (AR v1)
Track 3 accurately ripped (confidence 2) [5A7A05CC] (AR v1)
Track 4 accurately ripped (confidence 2) [F2E85E86] (AR v1)
Track 5 accurately ripped (confidence 2) [6A0D8F7F] (AR v1)
Track 6 accurately ripped (confidence 2) [C1063A26] (AR v1)
Track 7 accurately ripped (confidence 2) [0E0F5145] (AR v1)
Track 8 accurately ripped (confidence 2) [F080AED9] (AR v1)
Track 9 accurately ripped (confidence 2) [E59BAF8D] (AR v1)
Track 10 accurately ripped (confidence 2) [17AE2844] (AR v1)
Track 11 accurately ripped (confidence 2) [5E28BEB9] (AR v1)
Track 12 accurately ripped (confidence 2) [C7D5D96B] (AR v1)
Track 13 accurately ripped (confidence 2) [6D5B602D] (AR v1)
Track 14 accurately ripped (confidence 2) [4AE5AB70] (AR v1)
Track 15 accurately ripped (confidence 2) [A6D1F47E] (AR v1)
Track 16 accurately ripped (confidence 2) [CCB566B7] (AR v1)
Track 17 accurately ripped (confidence 2) [822C42C8] (AR v1)
Track 18 accurately ripped (confidence 2) [B4281435] (AR v1)
Track 19 accurately ripped (confidence 2) [8259A643] (AR v1)
Track 20 accurately ripped (confidence 2) [5420B1A5] (AR v1)
Track 21 accurately ripped (confidence 2) [47CB9B5A] (AR v1)
Track 22 accurately ripped (confidence 2) [45810360] (AR v1)
Track 23 accurately ripped (confidence 2) [704315DF] (AR v1)
Track 24 accurately ripped (confidence 2) [0F16B985] (AR v1)
Track 25 accurately ripped (confidence 2) [2C96AB8D] (AR v1)
Track 26 accurately ripped (confidence 2) [6447F947] (AR v1)

All tracks accurately ripped

End of status report

–– CUETools DB Plugin V2.1.6

[CTDB TOCID: jdA7f1WDMdGhDKhMuTgoItGZYeM-] found
Submit result: jdA7f1WDMdGhDKhMuTgoItGZYeM- has been confirmed
Track | CTDB Status
1 | (4/4) Accurately ripped
2 | (4/4) Accurately ripped
3 | (4/4) Accurately ripped
4 | (4/4) Accurately ripped
5 | (4/4) Accurately ripped
6 | (4/4) Accurately ripped
7 | (4/4) Accurately ripped
8 | (4/4) Accurately ripped
9 | (4/4) Accurately ripped
10 | (4/4) Accurately ripped
11 | (4/4) Accurately ripped
12 | (4/4) Accurately ripped
13 | (4/4) Accurately ripped
14 | (4/4) Accurately ripped
15 | (4/4) Accurately ripped
16 | (4/4) Accurately ripped
17 | (4/4) Accurately ripped
18 | (4/4) Accurately ripped
19 | (4/4) Accurately ripped
20 | (4/4) Accurately ripped
21 | (4/4) Accurately ripped
22 | (4/4) Accurately ripped
23 | (4/4) Accurately ripped
24 | (4/4) Accurately ripped
25 | (4/4) Accurately ripped
26 | (4/4) Accurately ripped


==== Log checksum C308001788776FB17C565D9189E76AAA9391519258557536A60C2B2F135E882E ====

Anne-Catherine Bucher, Le Concert Lorrain - Henry Desmarest: Manuscrit des Ursulines de la Nouvelle-Orléans (2002)

Thanks to the original releaser