Tags
Language
Tags
February 2024
Su Mo Tu We Th Fr Sa
28 29 30 31 1 2 3
4 5 6 7 8 9 10
11 12 13 14 15 16 17
18 19 20 21 22 23 24
25 26 27 28 29 1 2
Attention❗ To save your time, in order to download anything on this site, you must be registered 👉 HERE. If you do not have a registration yet, it is better to do it right away. ✌

( • )( • ) ( ͡⚆ ͜ʖ ͡⚆ ) (‿ˠ‿)
SpicyMags.xyz

Arne Domnerus Group - Jazz At The Pawnshop (1977) [K2HD mastering, Reissue 2008]

Posted By: gribovar
Arne Domnerus Group - Jazz At The Pawnshop (1977) [K2HD mastering, Reissue 2008]

Arne Domnerus Group - Jazz At The Pawnshop (1977) [K2HD mastering, Reissue 2008]
EAC Rip | WavPack (image+.cue+log) - 496 MB | MP3 CBR 320 kbps (LAME 3.93) - 208 MB | Covers - 94 MB
Genre: Jazz, Standards | RAR 3% Rec. | Label: First Impression Music/LIM (LIM K2HD 028)

This is the first of four volumes that fully document a legendary engagement at the Pawnshop club in Stockholm, Sweden. Featured are Arne Domnerus (doubling on alto and clarinet), pianist Bengt Hallberg, vibraphonist Lars Erstrand, bassist Georg Riedel and drummer Egil Johansen. They mostly stick to swing standards, recalling the groups of Benny Goodman and Lionel Hampton. Highlights include a heated "Limehouse Blues," the African folk song "High Life," "Lady Be Good" and Coleman Hawkins's "Stuffy." All of the volumes in this series are well worth getting by straightahead jazz fans, particularly those not familiar with Arne Domnerus's excellent playing.
CD 1 Tracklist:
01. Introduction
02. Limehouse Blues
03. I'm Confessin'
04. High Life
05. Struttin'with Some Barbeque
06. Jeep's Blues
07. Stuffy

Total time: 46:12

CD 2 Tracklist:
01. Lady Be Good
02. Here Is That Rainy Day
03. Barbados
04. How High The Moon
05. Take Five
06. Everything Happens To Me

Total time: 42:00

Exact Audio Copy V0.99 prebeta 4 from 23. January 2008

EAC extraction logfile from 10. February 2010, 19:57

Arne Domnerus Group / Jazz At The Pawnshop (CD1)

Used drive : HL-DT-STDVDRAM GH20NS10 Adapter: 2 ID: 1

Read mode : Secure
Utilize accurate stream : Yes
Defeat audio cache : Yes
Make use of C2 pointers : No

Read offset correction : 667
Overread into Lead-In and Lead-Out : No
Fill up missing offset samples with silence : Yes
Delete leading and trailing silent blocks : No
Null samples used in CRC calculations : Yes
Used interface : Installed external ASPI interface

Used output format : Internal WAV Routines
Sample format : 44.100 Hz; 16 Bit; Stereo


TOC of the extracted CD

Track | Start | Length | Start sector | End sector
––––––––––––––––––––––––––––-
1 | 0:00.00 | 0:39.33 | 0 | 2957
2 | 0:39.33 | 9:35.36 | 2958 | 46118
3 | 10:14.69 | 8:03.25 | 46119 | 82368
4 | 18:18.19 | 7:11.02 | 82369 | 114695
5 | 25:29.21 | 6:37.43 | 114696 | 144513
6 | 32:06.64 | 6:59.38 | 144514 | 175976
7 | 39:06.27 | 7:05.61 | 175977 | 207912


Range status and errors

Selected range

Filename Z:\Arne Domnerus Group - 1976 - Jazz At The Pawnshop {2CDs LIM K2HD 028}\CD1\Arne Domnerus Group - Jazz At The Pawnshop CD1.wav

Peak level 97.9 %
Range quality 99.9 %
Test CRC CBDE2994
Copy CRC CBDE2994
Copy OK

No errors occurred


AccurateRip summary

Track 1 accurately ripped (confidence 12) [1EA2A124]
Track 2 accurately ripped (confidence 12) [D3BB5550]
Track 3 accurately ripped (confidence 12) [F0564751]
Track 4 accurately ripped (confidence 12) [A10D0A58]
Track 5 accurately ripped (confidence 12) [C3333005]
Track 6 accurately ripped (confidence 12) [4FF590CA]
Track 7 accurately ripped (confidence 12) [8D1A2376]

All tracks accurately ripped

End of status report

[CUETools log; Date: 23.04.2019 11:25:21; Version: 2.1.4]
[CTDB TOCID: T2FRb23yHuvayvsG5hy.vPXA5m4-] found.
Track | CTDB Status
1 | (47/47) Accurately ripped
2 | (47/47) Accurately ripped
3 | (46/47) Accurately ripped
4 | (46/47) Accurately ripped
5 | (45/47) Accurately ripped
6 | (46/47) Accurately ripped
7 | (46/47) Accurately ripped
[AccurateRip ID: 000bd192-004962f1-450ad407] found.
Track [ CRC | V2 ] Status
01 [1ea2a124|25aa8405] (36+41/77) Accurately ripped
02 [d3bb5550|f4446ef2] (36+41/77) Accurately ripped
03 [f0564751|270e1e31] (36+41/77) Accurately ripped
04 [a10d0a58|e20e9d7a] (36+41/77) Accurately ripped
05 [c3333005|aaa48fc4] (36+41/77) Accurately ripped
06 [4ff590ca|79308b1d] (36+41/77) Accurately ripped
07 [8d1a2376|c7247b90] (35+41/76) Accurately ripped

Track Peak [ CRC32 ] [W/O NULL] [ LOG ]
– 97,9 [CBDE2994] [E47E4A0A] CRC32
01 34,2 [5B4D0F8D] [4B45E2C3]
02 97,9 [469E1855] [09B5B7D0]
03 96,9 [EFC70A1E] [D1FDFD39]
04 97,9 [7BB6BB6B] [A2A9D396]
05 97,9 [581AD671] [E1AC6C63]
06 95,6 [BFBFA934] [1CB1E998]
07 89,1 [2676D220] [9084EDE8]

Exact Audio Copy V0.99 prebeta 4 from 23. January 2008

EAC extraction logfile from 10. February 2010, 21:30

Arne Domnerus Group / Jazz At The Pawnshop CD2

Used drive : HL-DT-STDVDRAM GH20NS10 Adapter: 2 ID: 1

Read mode : Secure
Utilize accurate stream : Yes
Defeat audio cache : Yes
Make use of C2 pointers : No

Read offset correction : 667
Overread into Lead-In and Lead-Out : No
Fill up missing offset samples with silence : Yes
Delete leading and trailing silent blocks : No
Null samples used in CRC calculations : Yes
Used interface : Installed external ASPI interface

Used output format : Internal WAV Routines
Sample format : 44.100 Hz; 16 Bit; Stereo


TOC of the extracted CD

Track | Start | Length | Start sector | End sector
––––––––––––––––––––––––––––-
1 | 0:00.00 | 9:32.50 | 0 | 42949
2 | 9:32.50 | 5:29.63 | 42950 | 67687
3 | 15:02.38 | 8:28.05 | 67688 | 105792
4 | 23:30.43 | 6:14.33 | 105793 | 133875
5 | 29:45.01 | 6:58.73 | 133876 | 165298
6 | 36:43.74 | 5:16.09 | 165299 | 189007


Range status and errors

Selected range

Filename Z:\Arne Domnerus Group - 1976 - Jazz At The Pawnshop {2CDs LIM K2HD 028}\CD2\Arne Domnerus Group - Jazz At The Pawnshop CD2.wav

Peak level 97.9 %
Range quality 100.0 %
Test CRC 8F1BBEA5
Copy CRC 8F1BBEA5
Copy OK

No errors occurred


AccurateRip summary

Track 1 accurately ripped (confidence 11) [709795AE]
Track 2 accurately ripped (confidence 11) [81FB45E4]
Track 3 accurately ripped (confidence 11) [2FBA2D55]
Track 4 accurately ripped (confidence 11) [3AF45CFB]
Track 5 accurately ripped (confidence 11) [BB49BF6F]
Track 6 accurately ripped (confidence 11) [0B36675E]

All tracks accurately ripped

End of status report

[CUETools log; Date: 23.04.2019 11:26:10; Version: 2.1.4]
[CTDB TOCID: jrevzZiMFi0xqxY9yVGH_VPdNQE-] found.
Track | CTDB Status
1 | (42/43) Accurately ripped
2 | (43/43) Accurately ripped
3 | (41/43) Accurately ripped
4 | (43/43) Accurately ripped
5 | (42/43) Accurately ripped
6 | (43/43) Accurately ripped
[AccurateRip ID: 000ac066-003866ef-4709d806] found.
Track [ CRC | V2 ] Status
01 [709795ae|17ed943f] (36+40/76) Accurately ripped
02 [81fb45e4|69caa543] (36+40/76) Accurately ripped
03 [2fba2d55|6e79035a] (36+40/76) Accurately ripped
04 [3af45cfb|560ef5c5] (36+40/76) Accurately ripped
05 [bb49bf6f|90a63877] (36+40/76) Accurately ripped
06 [0b36675e|935c744d] (36+40/76) Accurately ripped

Track Peak [ CRC32 ] [W/O NULL] [ LOG ]
– 97,9 [8F1BBEA5] [FCF15654] CRC32
01 97,9 [F94DD131] [CCC5E3F5]
02 97,9 [FAB6AF15] [7D447426]
03 97,9 [6740D515] [1FC7FFDD]
04 97,9 [A32F9A1F] [93C57E15]
05 97,9 [3E98B215] [CE35E262]
06 91,3 [FF91DF01] [DB9AF911]

Thanks to pr3ss